  0
SECTION
  2
HEADER
  9
$ACADVER
  1
AC1015
  9
$ACADMAINTVER
 70
    20
  9
$DWGCODEPAGE
  3
ANSI_932
  9
$INSBASE
 10
0.0
 20
0.0
 30
0.0
  9
$EXTMIN
 10
20.97564797496386
 20
21.38131785507005
 30
-0.0015258207003583
  9
$EXTMAX
 10
362.4307260085256
 20
313.0065314718598
 30
0.0000000349246037
  9
$LIMMIN
 10
-0.0000000000000002
 20
0.0
  9
$LIMMAX
 10
594.0
 20
420.0
  9
$ORTHOMODE
 70
     0
  9
$REGENMODE
 70
     1
  9
$FILLMODE
 70
     1
  9
$QTEXTMODE
 70
     0
  9
$MIRRTEXT
 70
     0
  9
$LTSCALE
 40
1.0
  9
$ATTMODE
 70
     1
  9
$TEXTSIZE
 40
3.5
  9
$TRACEWID
 40
1.0
  9
$TEXTSTYLE
  7
STANDARD
  9
$CLAYER
  8
AM_4
  9
$CELTYPE
  6
ByLayer
  9
$CECOLOR
 62
   256
  9
$CELTSCALE
 40
1.0
  9
$DISPSILH
 70
     0
  9
$DIMSCALE
 40
1.0
  9
$DIMASZ
 40
3.5
  9
$DIMEXO
 40
0.5
  9
$DIMDLI
 40
8.0
  9
$DIMRND
 40
0.0
  9
$DIMDLE
 40
0.0
  9
$DIMEXE
 40
0.5
  9
$DIMTP
 40
0.1
  9
$DIMTM
 40
0.1
  9
$DIMTXT
 40
3.5
  9
$DIMCEN
 40
0.0
  9
$DIMTSZ
 40
0.0
  9
$DIMTOL
 70
     0
  9
$DIMLIM
 70
     0
  9
$DIMTIH
 70
     0
  9
$DIMTOH
 70
     0
  9
$DIMSE1
 70
     0
  9
$DIMSE2
 70
     0
  9
$DIMTAD
 70
     1
  9
$DIMZIN
 70
     8
  9
$DIMBLK
  1

  9
$DIMASO
 70
     1
  9
$DIMSHO
 70
     1
  9
$DIMPOST
  1

  9
$DIMAPOST
  1
"
  9
$DIMALT
 70
     0
  9
$DIMALTD
 70
     2
  9
$DIMALTF
 40
0.0393701
  9
$DIMLFAC
 40
1.0
  9
$DIMTOFL
 70
     1
  9
$DIMTVP
 40
0.0
  9
$DIMTIX
 70
     0
  9
$DIMSOXD
 70
     0
  9
$DIMSAH
 70
     0
  9
$DIMBLK1
  1

  9
$DIMBLK2
  1

  9
$DIMSTYLE
  2
AM_ISO
  9
$DIMCLRD
 70
     3
  9
$DIMCLRE
 70
     3
  9
$DIMCLRT
 70
     2
  9
$DIMTFAC
 40
0.71
  9
$DIMGAP
 40
0.75
  9
$DIMJUST
 70
     0
  9
$DIMSD1
 70
     0
  9
$DIMSD2
 70
     0
  9
$DIMTOLJ
 70
     2
  9
$DIMTZIN
 70
     8
  9
$DIMALTZ
 70
     0
  9
$DIMALTTZ
 70
     0
  9
$DIMUPT
 70
     0
  9
$DIMDEC
 70
     2
  9
$DIMTDEC
 70
     2
  9
$DIMALTU
 70
     2
  9
$DIMALTTD
 70
     2
  9
$DIMTXSTY
  7
STANDARD
  9
$DIMAUNIT
 70
     0
  9
$DIMADEC
 70
     0
  9
$DIMALTRND
 40
0.0
  9
$DIMAZIN
 70
     2
  9
$DIMDSEP
 70
    46
  9
$DIMATFIT
 70
     3
  9
$DIMFRAC
 70
     0
  9
$DIMLDRBLK
  1

  9
$DIMLUNIT
 70
     2
  9
$DIMLWD
 70
    -1
  9
$DIMLWE
 70
    -1
  9
$DIMTMOVE
 70
     0
  9
$LUNITS
 70
     2
  9
$LUPREC
 70
     2
  9
$SKETCHINC
 40
1.0
  9
$FILLETRAD
 40
0.0
  9
$AUNITS
 70
     0
  9
$AUPREC
 70
     0
  9
$MENU
  1
.
  9
$ELEVATION
 40
0.0
  9
$PELEVATION
 40
0.0
  9
$THICKNESS
 40
0.0
  9
$LIMCHECK
 70
     0
  9
$CHAMFERA
 40
2.5
  9
$CHAMFERB
 40
2.5
  9
$CHAMFERC
 40
0.0
  9
$CHAMFERD
 40
0.0
  9
$SKPOLY
 70
     0
  9
$TDCREATE
 40
2458065.688442327
  9
$TDUCREATE
 40
2458065.313442327
  9
$TDUPDATE
 40
2458065.698594120
  9
$TDUUPDATE
 40
2458065.323594120
  9
$TDINDWG
 40
0.0101530556
  9
$TDUSRTIMER
 40
0.0101530556
  9
$USRTIMER
 70
     1
  9
$ANGBASE
 50
0.0
  9
$ANGDIR
 70
     0
  9
$PDMODE
 70
     0
  9
$PDSIZE
 40
0.0
  9
$PLINEWID
 40
0.0
  9
$SPLFRAME
 70
     0
  9
$SPLINETYPE
 70
     6
  9
$SPLINESEGS
 70
     8
  9
$HANDSEED
  5
798
  9
$SURFTAB1
 70
     6
  9
$SURFTAB2
 70
     6
  9
$SURFTYPE
 70
     6
  9
$SURFU
 70
     6
  9
$SURFV
 70
     6
  9
$UCSBASE
  2

  9
$UCSNAME
  2

  9
$UCSORG
 10
0.0
 20
0.0
 30
0.0
  9
$UCSXDIR
 10
1.0
 20
0.0
 30
0.0
  9
$UCSYDIR
 10
0.0
 20
1.0
 30
0.0
  9
$UCSORTHOREF
  2

  9
$UCSORTHOVIEW
 70
     0
  9
$UCSORGTOP
 10
0.0
 20
0.0
 30
0.0
  9
$UCSORGBOTTOM
 10
0.0
 20
0.0
 30
0.0
  9
$UCSORGLEFT
 10
0.0
 20
0.0
 30
0.0
  9
$UCSORGRIGHT
 10
0.0
 20
0.0
 30
0.0
  9
$UCSORGFRONT
 10
0.0
 20
0.0
 30
0.0
  9
$UCSORGBACK
 10
0.0
 20
0.0
 30
0.0
  9
$PUCSBASE
  2

  9
$PUCSNAME
  2

  9
$PUCSORG
 10
0.0
 20
0.0
 30
0.0
  9
$PUCSXDIR
 10
1.0
 20
0.0
 30
0.0
  9
$PUCSYDIR
 10
0.0
 20
1.0
 30
0.0
  9
$PUCSORTHOREF
  2

  9
$PUCSORTHOVIEW
 70
     0
  9
$PUCSORGTOP
 10
0.0
 20
0.0
 30
0.0
  9
$PUCSORGBOTTOM
 10
0.0
 20
0.0
 30
0.0
  9
$PUCSORGLEFT
 10
0.0
 20
0.0
 30
0.0
  9
$PUCSORGRIGHT
 10
0.0
 20
0.0
 30
0.0
  9
$PUCSORGFRONT
 10
0.0
 20
0.0
 30
0.0
  9
$PUCSORGBACK
 10
0.0
 20
0.0
 30
0.0
  9
$USERI1
 70
     0
  9
$USERI2
 70
     0
  9
$USERI3
 70
     0
  9
$USERI4
 70
     0
  9
$USERI5
 70
     0
  9
$USERR1
 40
0.0
  9
$USERR2
 40
0.0
  9
$USERR3
 40
0.0
  9
$USERR4
 40
0.0
  9
$USERR5
 40
0.0
  9
$WORLDVIEW
 70
     1
  9
$SHADEDGE
 70
     3
  9
$SHADEDIF
 70
    70
  9
$TILEMODE
 70
     1
  9
$MAXACTVP
 70
    64
  9
$PINSBASE
 10
0.0
 20
0.0
 30
0.0
  9
$PLIMCHECK
 70
     0
  9
$PEXTMIN
 10
1.000000000000000E+20
 20
1.000000000000000E+20
 30
1.000000000000000E+20
  9
$PEXTMAX
 10
-1.000000000000000E+20
 20
-1.000000000000000E+20
 30
-1.000000000000000E+20
  9
$PLIMMIN
 10
0.0
 20
0.0
  9
$PLIMMAX
 10
420.0
 20
297.0
  9
$UNITMODE
 70
     0
  9
$VISRETAIN
 70
     1
  9
$PLINEGEN
 70
     0
  9
$PSLTSCALE
 70
     1
  9
$TREEDEPTH
 70
  3020
  9
$CMLSTYLE
  2
Standard
  9
$CMLJUST
 70
     0
  9
$CMLSCALE
 40
20.0
  9
$PROXYGRAPHICS
 70
     1
  9
$MEASUREMENT
 70
     1
  9
$CELWEIGHT
370
    -1
  9
$ENDCAPS
280
     0
  9
$JOINSTYLE
280
     0
  9
$LWDISPLAY
290
     1
  9
$INSUNITS
 70
     4
  9
$HYPERLINKBASE
  1

  9
$STYLESHEET
  1

  9
$XEDIT
290
     1
  9
$CEPSNTYPE
380
     0
  9
$PSTYLEMODE
290
     1
  9
$FINGERPRINTGUID
  2
{9EFB6CAE-22BE-412F-B54A-538318BF60DD}
  9
$VERSIONGUID
  2
{B7ADAE1C-C93A-42A7-85AC-B5D417F5936D}
  9
$EXTNAMES
290
     1
  9
$PSVPSCALE
 40
0.0
  9
$OLESTARTUP
290
     0
  0
ENDSEC
  0
SECTION
  2
CLASSES
  0
CLASS
  1
ACDBDICTIONARYWDFLT
  2
AcDbDictionaryWithDefault
  3
ObjectDBX Classes
 90
        0
280
     0
281
     0
  0
CLASS
  1
TABLESTYLE
  2
AcDbTableStyle
  3
ObjectDBX Classes
 90
     2047
280
     0
281
     0
  0
CLASS
  1
AMGSETTINGSOBJ
  2
AmgSettingsObj
  3
"AcadM|Product Description: AutoCAD Mechanical 2000|Company: Autodesk"
 90
        0
280
     0
281
     0
  0
CLASS
  1
AMGOBJPROPCFG
  2
AmgObjPropCfg
  3
"AmgLay|Product Description: AutoCAD Mechanical 2000|Company: Autodesk"
 90
        1
280
     0
281
     0
  0
CLASS
  1
ACME_DOCUMENT
  2
AcMeDbDoc
  3
AcMeServices
 90
        0
280
     0
281
     0
  0
CLASS
  1
ACMESCOPE
  2
AcMeScope
  3
AcMeServices
 90
        0
280
     0
281
     0
  0
CLASS
  1
ACMECOMMANDHISTORY
  2
AcMeCommandHistory
  3
AcMeServices
 90
        0
280
     0
281
     0
  0
CLASS
  1
ACIMSYSVARMAN
  2
AcImSysVarManager
  3
AcMeServices
 90
        0
280
     0
281
     0
  0
CLASS
  1
ACIMINTSYSVAR
  2
AcImIntSysVar
  3
AcMeServices
 90
        0
280
     0
281
     0
  0
CLASS
  1
ACMEDRAWINGMAN
  2
AcMeDrawingMan
  3
AcMeServices
 90
        0
280
     0
281
     0
  0
CLASS
  1
ACMEVIEW
  2
AcMeView
  3
AcMeServices
 90
        0
280
     0
281
     0
  0
CLASS
  1
ACDBENTITYCACHE
  2
AcMeEntityCache
  3
AcMeServices
 90
        0
280
     0
281
     0
  0
CLASS
  1
GSMANAGER
  2
AcMeGSManager
  3
AcMeServices
 90
        0
280
     0
281
     0
  0
CLASS
  1
AMDTINTERNALREACTOR
  2
AmdtInternalReactor
  3
AcMeServices
 90
        0
280
     0
281
     0
  0
CLASS
  1
ACMESTATEMGR
  2
AcMeStateMgr
  3
AcMeServices
 90
        0
280
     0
281
     0
  0
CLASS
  1
ACGREFMASTER
  2
AcGrefMaster
  3
AcAttribServices
 90
        0
280
     0
281
     0
  0
CLASS
  1
AM_DRAWING_MGR
  2
AcDmDwgMgr
  3
AcMechDwgViewMgmt
 90
        0
280
     0
281
     0
  0
CLASS
  1
AM_DWG_DOCUMENT
  2
AcDmDwgDocument
  3
AcMechDwgViewMgmt
 90
        0
280
     0
281
     0
  0
CLASS
  1
AM_DWG_SHEET
  2
AcDmSheet
  3
AcMechDwgViewMgmt
 90
        0
280
     0
281
     0
  0
CLASS
  1
AM_VIEWDIMPARMAP
  2
AcDmViewDimParMap
  3
AcMechDwgViewMgmt
 90
        0
280
     0
281
     0
  0
CLASS
  1
ACIMREALSYSVAR
  2
AcImRealSysVar
  3
AcMeServices
 90
        0
280
     0
281
     0
  0
CLASS
  1
AM_DWGMGR_NAME
  2
AcDmDwgMgrName
  3
AcMechDwgViewMgmt
 90
        0
280
     0
281
     0
  0
CLASS
  1
ACME_DATABASE
  2
AcMeDbDatabase
  3
AcMeServices
 90
        0
280
     0
281
     0
  0
CLASS
  1
ACRFINSADJUSTERMGR
  2
AcRfInsAdjusterMgr
  3
AcMeServices
 90
        0
280
     0
281
     0
  0
CLASS
  1
ACGREFACADMASTER
  2
AcGrefacadMaster
  3
AcGrefServices
 90
        0
280
     0
281
     0
  0
CLASS
  1
AMDTMENUSTATEMGR
  2
AmdtMenuStateMgr
  3
McadcomServices
 90
        0
280
     0
281
     0
  0
CLASS
  1
AMDTMCOMMENUSTATE
  2
AmdtMcomMenuState
  3
McadcomServices
 90
        0
280
     0
281
     0
  0
CLASS
  1
AMIMASTER
  2
AmiMaster
  3
AmiServices
 90
        0
280
     0
281
     0
  0
CLASS
  1
MAPIAMMOUDLE
  2
MApiAmModule
  3
MApiAmServices
 90
        0
280
     0
281
     0
  0
CLASS
  1
AMDTADMENUSTATE
  2
AmdtAdMenuState
  3
DesignerServices
 90
        0
280
     0
281
     0
  0
CLASS
  1
ADAPPL
  2
AcAdAppl
  3
DesignerServices
 90
        0
280
     0
281
     0
  0
CLASS
  1
DEPMGR
  2
AcAdDepMgr
  3
DesignerServices
 90
        0
280
     0
281
     0
  0
CLASS
  1
PARAMMGR
  2
AcAdParamMgr
  3
DesignerServices
 90
        0
280
     0
281
     0
  0
CLASS
  1
PARAMSCOPE
  2
AcAdParamScope
  3
DesignerServices
 90
        0
280
     0
281
     0
  0
CLASS
  1
NAMEDAPPL
  2
AcAdNamedAppl
  3
DesignerServices
 90
        0
280
     0
281
     0
  0
CLASS
  1
AMDTDMMENUSTATE
  2
AmdtDmMenuState
  3
AcMechDwgViewMgmt
 90
        0
280
     0
281
     0
  0
CLASS
  1
AMDTAMMENUSTATE
  2
AmdtAmMenuState
  3
DesignerAssemblies
 90
        0
280
     0
281
     0
  0
CLASS
  1
ACIMSTRSYSVAR
  2
AcImStrSysVar
  3
AcMeServices
 90
        0
280
     0
281
     0
  0
CLASS
  1
ACAMPROJECT
  2
AcAmProject
  3
DesignerAssemblies
 90
        0
280
     0
281
     0
  0
CLASS
  1
ACAMGRCOMPDEF
  2
AcAmGrCompDef
  3
DesignerAssemblies
 90
        0
280
     0
281
     0
  0
CLASS
  1
ACCMCONTEXT
  2
AcCmContext
  3
DesignerAssemblies
 90
        0
280
     0
281
     0
  0
CLASS
  1
ACAMCOMPDEF
  2
AcAmCompDef
  3
DesignerAssemblies
 90
        0
280
     0
281
     0
  0
CLASS
  1
ACAMCOMPDEFMGR
  2
AcAmCompDefMgr
  3
DesignerAssemblies
 90
        0
280
     0
281
     0
  0
CLASS
  1
AMCONTEXTMGR
  2
AcAmContextMgr
  3
DesignerAssemblies
 90
        0
280
     0
281
     0
  0
CLASS
  1
ACAMCONTEXTMODELER
  2
AcAmContextModeler
  3
DesignerAssemblies
 90
        0
280
     0
281
     0
  0
CLASS
  1
ACMDATADICTIONARY
  2
AcmDataDictionary
  3
"AcmSymBB|Product Description: AutoCAD Mechanical 2004 DX|Company: Autodesk"
 90
        0
280
     0
281
     0
  0
CLASS
  1
ACMSTANDARDISO
  2
AcmStandardISO
  3
"Amdt_StdImp|Product Description: AutoCAD Mechanical 2004 DX|Company: Autodesk"
 90
        0
280
     0
281
     0
  0
CLASS
  1
AMDTEDGESTANDARDISO
  2
AmdtEdgeStdISO
  3
"Amdt_StdImp|Product Description: AutoCAD Mechanical 2004 DX|Company: Autodesk"
 90
        0
280
     0
281
     0
  0
CLASS
  1
ACMSURFSTANDARDISO
  2
AcmSurfTextStdISO
  3
"Amdt_StdImp|Product Description: AutoCAD Mechanical 2004 DX|Company: Autodesk"
 90
        0
280
     0
281
     0
  0
CLASS
  1
ACMFCFSTANDARDISO
  2
AcmFCFStdISO
  3
"Amdt_StdImp|Product Description: AutoCAD Mechanical 2004 DX|Company: Autodesk"
 90
        0
280
     0
281
     0
  0
CLASS
  1
ACMWELDSTANDARDISO
  2
AcmWeldingStdISO
  3
"Amdt_StdImp|Product Description: AutoCAD Mechanical 2004 DX|Company: Autodesk"
 90
        0
280
     0
281
     0
  0
CLASS
  1
ACMIDSTANDARDISO
  2
AcmIdStdISO
  3
"Amdt_StdImp|Product Description: AutoCAD Mechanical 2004 DX|Company: Autodesk"
 90
        0
280
     0
281
     0
  0
CLASS
  1
ACMDATUMSTANDARDISO
  2
AcmDatumStdISO
  3
"Amdt_StdImp|Product Description: AutoCAD Mechanical 2004 DX|Company: Autodesk"
 90
        0
280
     0
281
     0
  0
CLASS
  1
ACMBOMSTANDARDISO
  2
AcmBOMStdISO
  3
"Amdt_StdImp|Product Description: AutoCAD Mechanical 2004 DX|Company: Autodesk"
 90
        0
280
     0
281
     0
  0
CLASS
  1
ACMDETAILSTANDARDISO
  2
AmdtDetailSymStdISO
  3
"Amdt_StdImp|Product Description: AutoCAD Mechanical 2004 DX|Company: Autodesk"
 90
        0
280
     0
281
     0
  0
CLASS
  1
ACMSECTIONSTANDARDISO
  2
AmdtSectionSymStdISO
  3
"Amdt_StdImp|Product Description: AutoCAD Mechanical 2004 DX|Company: Autodesk"
 90
        0
280
     0
281
     0
  0
CLASS
  1
ACMCENTERLINESTANDARDISO
  2
AmdtCenterLineStdISO
  3
"Amdt_StdImp|Product Description: AutoCAD Mechanical 2004 DX|Company: Autodesk"
 90
        0
280
     0
281
     0
  0
CLASS
  1
ACMTHREADLINESTANDARDISO
  2
AmdtThreadLineStdISO
  3
"Amdt_StdImp|Product Description: AutoCAD Mechanical 2004 DX|Company: Autodesk"
 90
        0
280
     0
281
     0
  0
CLASS
  1
ACAMGLAYSTD
  2
AcAmgLayStd
  3
"AcAmgLayStd|Product Description: AutoCAD Mechanical 2000|Company: Autodesk"
 90
        0
280
     0
281
     0
  0
CLASS
  1
ACAMGDIMSTD
  2
AcAmgDimStd
  3
"AcAmgDimStd|Product Description: AutoCAD Mechanical 2000|Company: Autodesk"
 90
        0
280
     0
281
     0
  0
CLASS
  1
ACAMGTITLESTD
  2
AcAmgTitleStd
  3
"TITLEAPP"
 90
        0
280
     0
281
     0
  0
CLASS
  1
ACMNOTESTANDARDISO
  2
AmdtNoteStdISO
  3
"Amdt_StdImp|Product Description: AutoCAD Mechanical 2004 DX|Company: Autodesk"
 90
        0
280
     0
281
     0
  0
CLASS
  1
AMDTNOTETEMPLATEDB
  2
AmdtNoteTemplateDB
  3
AMDT_STDIMP_MODULE_NAME
 90
        0
280
     0
281
     0
  0
CLASS
  1
ACAMGHOLECHARTSTDISO
  2
AcAmgHoleChartStdISO
  3
ACMSYMBB_MODULE_NAME
 90
        0
280
     0
281
     0
  0
CLASS
  1
CATALOGSTATE
  2
AcAmCatalogState
  3
DesignerAssemblies
 90
        0
280
     0
281
     0
  0
CLASS
  1
ACAMGRCOMPDEFSET
  2
AcAmGrCompDefSet
  3
DesignerAssemblies
 90
        0
280
     0
281
     0
  0
CLASS
  1
AMDTBROWSERDBTAB
  2
AmdtBrowserDbTab
  3
McadcomServices
 90
        0
280
     0
281
     0
  0
CLASS
  1
CBROWSERAPPOBJECT
  2
CBrowserAppObject
  3
McadcomServices
 90
        0
280
     0
281
     0
  0
CLASS
  1
DM_PLACEHOLDER
  2
AcDmSelsetPlaceholder
  3
AcMechDwgViewMgmt
 90
        0
280
     0
281
     0
  0
CLASS
  1
DIMASSOC
  2
AcDbDimAssoc
  3
"AcDbDimAssoc|Product Desc:     AcDim ARX App For Dimension|Company:          Autodesk, Inc.|WEB Address:      www.autodesk.com"
 90
        0
280
     0
281
     0
  0
CLASS
  1
AMDTNOTE
  2
AmdtNote
  3
"AcmSymBB|Product Description: AutoCAD Mechanical 2004 DX|Company: Autodesk"
 90
     1023
280
     0
281
     1
  0
CLASS
  1
SORTENTSTABLE
  2
AcDbSortentsTable
  3
ObjectDBX Classes
 90
        0
280
     0
281
     0
  0
CLASS
  1
ACMDATAENTRYBLOCK
  2
AcmDataEntryBlock
  3
"AcmSymBB|Product Description: AutoCAD Mechanical 2004 DX|Company: Autodesk"
 90
        0
280
     0
281
     0
  0
CLASS
  1
ACAMGFILTERDAT
  2
AcAmgFilterDat
  3
"AcadM|Product Description: AutoCAD Mechanical 2000|Company: Autodesk"
 90
        0
280
     0
281
     0
  0
CLASS
  1
DICTIONARYVAR
  2
AcDbDictionaryVar
  3
ObjectDBX Classes
 90
        0
280
     0
281
     0
  0
CLASS
  1
ACRFATTGENMGR
  2
AcRfAttGeneralMgr
  3
AcAttribServices
 90
        0
280
     0
281
     0
  0
CLASS
  1
ACDBPLACEHOLDER
  2
AcDbPlaceHolder
  3
ObjectDBX Classes
 90
        0
280
     0
281
     0
  0
CLASS
  1
LAYOUT
  2
AcDbLayout
  3
ObjectDBX Classes
 90
        0
280
     0
281
     0
  0
ENDSEC
  0
SECTION
  2
TABLES
  0
TABLE
  2
VPORT
  5
8
330
0
100
AcDbSymbolTable
 70
    21
  0
VPORT
  5
790
330
8
100
AcDbSymbolTableRecord
100
AcDbViewportTableRecord
  2
*Active
 70
     0
 10
0.0
 20
0.0
 11
1.0
 21
1.0
 12
191.7031869917447
 22
167.1939246634649
 13
0.0
 23
0.0
 14
2.5
 24
2.5
 15
10.0
 25
10.0
 16
0.0
 26
0.0
 36
1.0
 17
0.0
 27
0.0
 37
0.0
 40
293.7409950940579
 41
1.824455205811138
 42
50.0
 43
0.0
 44
0.0
 50
0.0
 51
0.0
 71
     0
 72
  1000
 73
     1
 74
     3
 75
     0
 76
     0
 77
     0
 78
     0
281
     0
 65
     1
110
0.0
120
0.0
130
0.0
111
1.0
121
0.0
131
0.0
112
0.0
122
1.0
132
0.0
 79
     0
146
0.0
  0
ENDTAB
  0
TABLE
  2
LTYPE
  5
5
330
0
100
AcDbSymbolTable
 70
    14
  0
LTYPE
  5
14
330
5
100
AcDbSymbolTableRecord
100
AcDbLinetypeTableRecord
  2
ByBlock
 70
     0
  3

 72
    65
 73
     0
 40
0.0
  0
LTYPE
  5
15
330
5
100
AcDbSymbolTableRecord
100
AcDbLinetypeTableRecord
  2
ByLayer
 70
     0
  3

 72
    65
 73
     0
 40
0.0
  0
LTYPE
  5
16
330
5
100
AcDbSymbolTableRecord
100
AcDbLinetypeTableRecord
  2
Continuous
 70
     0
  3
Solid line
 72
    65
 73
     0
 40
0.0
  0
LTYPE
  5
52
330
5
100
AcDbSymbolTableRecord
100
AcDbLinetypeTableRecord
  2
ACISOTGL
 70
     0
  3
_ _ _ _ _
 72
    65
 73
     2
 40
3.0
 49
2.0
 74
     0
 49
-1.0
 74
     0
  0
LTYPE
  5
53
330
5
100
AcDbSymbolTableRecord
100
AcDbLinetypeTableRecord
  2
CENTER
 70
     0
  3
__ . __
 72
    65
 73
     4
 40
7.0
 49
4.0
 74
     0
 49
-1.0
 74
     0
 49
1.0
 74
     0
 49
-1.0
 74
     0
  0
LTYPE
  5
54
330
5
100
AcDbSymbolTableRecord
100
AcDbLinetypeTableRecord
  2
AM_ISO08W050
 70
     0
  3
____ . ____ . ____ . ____ . ____ . ____ . ____
 72
    65
 73
     4
 40
18.0
 49
12.0
 74
     0
 49
-1.5
 74
     0
 49
3.0
 74
     0
 49
-1.5
 74
     0
  0
LTYPE
  5
55
330
5
100
AcDbSymbolTableRecord
100
AcDbLinetypeTableRecord
  2
ACISOTGB
 70
     0
  3
__ . . __ . .
 72
    65
 73
     6
 40
9.0
 49
4.0
 74
     0
 49
-1.0
 74
     0
 49
1.0
 74
     0
 49
-1.0
 74
     0
 49
1.0
 74
     0
 49
-1.0
 74
     0
  0
LTYPE
  5
56
330
5
100
AcDbSymbolTableRecord
100
AcDbLinetypeTableRecord
  2
AM_ISO02W050
 70
     0
  3
__ __ __ __ __ __ __ __ __ __ __ __ __ __ __
 72
    65
 73
     2
 40
7.5
 49
6.0
 74
     0
 49
-1.5
 74
     0
  0
LTYPE
  5
57
330
5
100
AcDbSymbolTableRecord
100
AcDbLinetypeTableRecord
  2
AM_ISO09W050
 70
     0
  3
_____ . . _____ . . _____ . . ____ .. ____
 72
    65
 73
     6
 40
22.5
 49
12.0
 74
     0
 49
-1.5
 74
     0
 49
3.0
 74
     0
 49
-1.5
 74
     0
 49
3.0
 74
     0
 49
-1.5
 74
     0
  0
LTYPE
  5
58
330
5
100
AcDbSymbolTableRecord
100
AcDbLinetypeTableRecord
  2
Amconstr
 70
     0
  3
_______________________
 72
    65
 73
     2
 40
9999.0
 49
9999.0
 74
     0
 49
0.0
 74
     0
  0
LTYPE
  5
59
330
5
100
AcDbSymbolTableRecord
100
AcDbLinetypeTableRecord
  2
AM_ISO02W050x2
 70
     0
  3
 _ _ _ _ _ _ _ _ _ _ _ _
 72
    65
 73
     2
 40
3.75
 49
3.0
 74
     0
 49
-0.75
 74
     0
  0
LTYPE
  5
5A
330
5
100
AcDbSymbolTableRecord
100
AcDbLinetypeTableRecord
  2
Amzigzag
 70
     0
  3
/\/-/\/-/\/-/\/-/\/-/\/
 72
    65
 73
     2
 40
11.0001
 49
0.0001
 74
     4
 75
   135
340
5B
 46
0.04
 50
0.0
 44
0.0
 45
0.0
 49
-11.0
 74
     0
  0
LTYPE
  5
8B
330
5
100
AcDbSymbolTableRecord
100
AcDbLinetypeTableRecord
  2
HIDDEN
 70
     0
  3
Hidden __ __ __ __ __ __ __ __ __ __ __ __ __ _
 72
    65
 73
     2
 40
9.524999999999998
 49
6.349999999999999
 74
     0
 49
-3.174999999999999
 74
     0
  0
LTYPE
  5
8C
330
5
100
AcDbSymbolTableRecord
100
AcDbLinetypeTableRecord
  2
PHANTOM2
 70
     0
  3
Phantom (.5x) ___ _ _ ___ _ _ ___ _ _ ___ _ _
 72
    65
 73
     6
 40
31.75
 49
15.875
 74
     0
 49
-3.174999999999999
 74
     0
 49
3.174999999999999
 74
     0
 49
-3.174999999999999
 74
     0
 49
3.174999999999999
 74
     0
 49
-3.174999999999999
 74
     0
  0
LTYPE
  5
B7
330
5
100
AcDbSymbolTableRecord
100
AcDbLinetypeTableRecord
  2
ACISOWELD
 70
     0
  3
_ _ _ _ _
 72
    65
 73
     2
 40
2.0
 49
2.0
 74
     0
 49
-1.0
 74
     0
  0
LTYPE
  5
166
330
5
100
AcDbSymbolTableRecord
100
AcDbLinetypeTableRecord
  2
AM_ISO08W050x2
 70
     0
  3
__ . __ . __ . __ . __ . __
 72
    65
 73
     4
 40
9.0
 49
6.0
 74
     0
 49
-0.75
 74
     0
 49
1.5
 74
     0
 49
-0.75
 74
     0
  0
ENDTAB
  0
TABLE
  2
LAYER
  5
2
102
{ACAD_XDICTIONARY
360
16E
102
}
330
0
100
AcDbSymbolTable
 70
     9
  0
LAYER
  5
10
330
2
100
AcDbSymbolTableRecord
100
AcDbLayerTableRecord
  2
0
 70
     0
 62
     7
  6
Continuous
370
    -3
390
F
  0
LAYER
  5
31
330
2
100
AcDbSymbolTableRecord
100
AcDbLayerTableRecord
  2
Defpoints
 70
     0
 62
     7
  6
Continuous
290
     0
370
    -3
390
F
  0
LAYER
  5
EB
330
2
100
AcDbSymbolTableRecord
100
AcDbLayerTableRecord
  2
AM_0
 70
     0
 62
     7
  6
Continuous
370
    50
390
F
  0
LAYER
  5
167
330
2
100
AcDbSymbolTableRecord
100
AcDbLayerTableRecord
  2
AM_6
 70
     0
 62
     2
  6
Continuous
370
    35
390
F
  0
LAYER
  5
168
330
2
100
AcDbSymbolTableRecord
100
AcDbLayerTableRecord
  2
AM_4
 70
     0
 62
     3
  6
Continuous
370
    18
390
F
  0
LAYER
  5
169
330
2
100
AcDbSymbolTableRecord
100
AcDbLayerTableRecord
  2
PV0001_1
 70
     0
 62
     7
  6
Continuous
370
    -3
390
F
  0
LAYER
  5
16A
330
2
100
AcDbSymbolTableRecord
100
AcDbLayerTableRecord
  2
AM_3
 70
     0
 62
     6
  6
ACISOTGL
370
    18
390
F
  0
LAYER
  5
16B
330
2
100
AcDbSymbolTableRecord
100
AcDbLayerTableRecord
  2
AM_5
 70
     0
 62
     3
  6
Continuous
370
    18
390
F
  0
LAYER
  5
16C
330
2
100
AcDbSymbolTableRecord
100
AcDbLayerTableRecord
  2
AM_7
 70
     0
 62
     4
  6
CENTER
370
    18
390
F
  0
ENDTAB
  0
TABLE
  2
STYLE
  5
3
330
0
100
AcDbSymbolTable
 70
     7
  0
STYLE
  5
11
330
3
100
AcDbSymbolTableRecord
100
AcDbTextStyleTableRecord
  2
STANDARD
 70
     0
 40
0.0
 41
1.0
 50
0.0
 71
     0
 42
3.5
  3
MS Gothic.ttf
  4

1001
ACAD
1000
MS Gothic
1071
    32817
  0
STYLE
  5
5B
330
3
100
AcDbSymbolTableRecord
100
AcDbTextStyleTableRecord
  2

 70
     1
 40
0.0
 41
1.0
 50
0.0
 71
     0
 42
2.5
  3
ltypeshp.shx
  4

  0
STYLE
  5
B5
330
3
100
AcDbSymbolTableRecord
100
AcDbTextStyleTableRecord
  2
ACISOGDT
 70
     0
 40
0.0
 41
1.0
 50
0.0
 71
     0
 42
2.5
  3
amgdt.shx
  4
extfont.shx
  0
STYLE
  5
BE
330
3
100
AcDbSymbolTableRecord
100
AcDbTextStyleTableRecord
  2
ACISOTS
 70
     0
 40
1.0
 41
1.0
 50
0.0
 71
     0
 42
2.5
  3
isocp.shx
  4
extfont.shx
  0
STYLE
  5
E8
330
3
100
AcDbSymbolTableRecord
100
AcDbTextStyleTableRecord
  2
USER1
 70
     0
 40
0.0
 41
1.0
 50
0.0
 71
     0
 42
2.5
  3
TXT.SHX
  4

  0
STYLE
  5
E9
330
3
100
AcDbSymbolTableRecord
100
AcDbTextStyleTableRecord
  2
USER2
 70
     0
 40
0.0
 41
1.0
 50
0.0
 71
     0
 42
2.5
  3
SIMPLEX.SHX
  4

  0
STYLE
  5
EA
330
3
100
AcDbSymbolTableRecord
100
AcDbTextStyleTableRecord
  2
USER3
 70
     0
 40
0.0
 41
1.0
 50
0.0
 71
     0
 42
2.5
  3
ITALIC.SHX
  4

  0
ENDTAB
  0
TABLE
  2
VIEW
  5
6
330
0
100
AcDbSymbolTable
 70
     0
  0
ENDTAB
  0
TABLE
  2
UCS
  5
7
330
0
100
AcDbSymbolTable
 70
     0
  0
ENDTAB
  0
TABLE
  2
APPID
  5
9
330
0
100
AcDbSymbolTable
 70
    30
  0
APPID
  5
12
330
9
100
AcDbSymbolTableRecord
100
AcDbRegAppTableRecord
  2
ACAD
 70
     0
  0
APPID
  5
32
330
9
100
AcDbSymbolTableRecord
100
AcDbRegAppTableRecord
  2
MCAD_NO_VIS
 70
     0
  0
APPID
  5
33
330
9
100
AcDbSymbolTableRecord
100
AcDbRegAppTableRecord
  2
ACAD_TEMP_GRAPHIC
 70
     0
  0
APPID
  5
34
330
9
100
AcDbSymbolTableRecord
100
AcDbRegAppTableRecord
  2
ACATTRIBSERVICES
 70
     0
  0
APPID
  5
35
330
9
100
AcDbSymbolTableRecord
100
AcDbRegAppTableRecord
  2
AD_DRAW
 70
     0
  0
APPID
  5
36
330
9
100
AcDbSymbolTableRecord
100
AcDbRegAppTableRecord
  2
DESIGNERASSEMBLIES
 70
     0
  0
APPID
  5
37
330
9
100
AcDbSymbolTableRecord
100
AcDbRegAppTableRecord
  2
ACADM_DIM_EDIT
 70
     0
  0
APPID
  5
38
330
9
100
AcDbSymbolTableRecord
100
AcDbRegAppTableRecord
  2
AMDT_DM_ADJ
 70
     0
  0
APPID
  5
39
330
9
100
AcDbSymbolTableRecord
100
AcDbRegAppTableRecord
  2
ACAD_DSTYLE_DIMTEXT_FILL
 70
     0
  0
APPID
  5
3A
330
9
100
AcDbSymbolTableRecord
100
AcDbRegAppTableRecord
  2
GENIUS_GENODEF_13
 70
     0
  0
APPID
  5
3B
330
9
100
AcDbSymbolTableRecord
100
AcDbRegAppTableRecord
  2
GENIUS_GENOBJ-N-CEN_13
 70
     0
  0
APPID
  5
3C
330
9
100
AcDbSymbolTableRecord
100
AcDbRegAppTableRecord
  2
GENIUS_GENCEN_19
 70
     0
  0
APPID
  5
3D
330
9
100
AcDbSymbolTableRecord
100
AcDbRegAppTableRecord
  2
GENIUS_GENBLLY_14
 70
     0
  0
APPID
  5
3E
330
9
100
AcDbSymbolTableRecord
100
AcDbRegAppTableRecord
  2
GENIUS_GENOLIS_13
 70
     0
  0
APPID
  5
3F
330
9
100
AcDbSymbolTableRecord
100
AcDbRegAppTableRecord
  2
GENIUS_GENOENT_13
 70
     0
  0
APPID
  5
40
330
9
100
AcDbSymbolTableRecord
100
AcDbRegAppTableRecord
  2
GENIUS_GENOBJ-N-TIT_13
 70
     0
  0
APPID
  5
41
330
9
100
AcDbSymbolTableRecord
100
AcDbRegAppTableRecord
  2
GENIUS_GENTITLE_13
 70
     0
  0
APPID
  5
42
330
9
100
AcDbSymbolTableRecord
100
AcDbRegAppTableRecord
  2
GENIUS_GENOREF_13
 70
     0
  0
APPID
  5
43
330
9
100
AcDbSymbolTableRecord
100
AcDbRegAppTableRecord
  2
GENIUS_GENSCREG_15
 70
     0
  0
APPID
  5
44
330
9
100
AcDbSymbolTableRecord
100
AcDbRegAppTableRecord
  2
GENIUS_GENOBJ-N-SDF_13
 70
     0
  0
APPID
  5
45
330
9
100
AcDbSymbolTableRecord
100
AcDbRegAppTableRecord
  2
GENIUS_GENREC_14
 70
     0
  0
APPID
  5
46
330
9
100
AcDbSymbolTableRecord
100
AcDbRegAppTableRecord
  2
GENIUS_GENOBJ-N-REC_13
 70
     0
  0
APPID
  5
47
330
9
100
AcDbSymbolTableRecord
100
AcDbRegAppTableRecord
  2
GENIUS_GENTRA_14
 70
     0
  0
APPID
  5
48
330
9
100
AcDbSymbolTableRecord
100
AcDbRegAppTableRecord
  2
GENIUS_GENDIMSH_14
 70
     0
  0
APPID
  5
49
330
9
100
AcDbSymbolTableRecord
100
AcDbRegAppTableRecord
  2
GENIUS_GENDTOL_13
 70
     0
  0
APPID
  5
4A
330
9
100
AcDbSymbolTableRecord
100
AcDbRegAppTableRecord
  2
GENIUS_GENDIM_13
 70
     0
  0
APPID
  5
4B
330
9
100
AcDbSymbolTableRecord
100
AcDbRegAppTableRecord
  2
GENIUS_GE3DTOL_13
 70
     0
  0
APPID
  5
4C
330
9
100
AcDbSymbolTableRecord
100
AcDbRegAppTableRecord
  2
ASURF_PCURVE_APPNAME
 70
     0
  0
APPID
  5
4D
330
9
100
AcDbSymbolTableRecord
100
AcDbRegAppTableRecord
  2
AMG_3D2D_5.0
 70
     0
  0
APPID
  5
4E
330
9
100
AcDbSymbolTableRecord
100
AcDbRegAppTableRecord
  2
ACAD_PSEXT
 70
     0
  0
ENDTAB
  0
TABLE
  2
DIMSTYLE
  5
A
330
0
100
AcDbSymbolTable
 70
    11
100
AcDbDimStyleTable
 71
     1
340
CC
  0
DIMSTYLE
105
2B
330
A
100
AcDbSymbolTableRecord
100
AcDbDimStyleTableRecord
  2
ISO-25
 70
     0
 41
2.5
 42
0.625
 43
3.75
 44
1.25
 73
     0
 74
     0
 77
     1
 78
     8
140
2.5
141
2.5
143
0.03937007874016
147
0.625
171
     3
172
     1
271
     2
272
     2
274
     3
283
     0
284
     8
340
11
  0
DIMSTYLE
105
CC
102
{ACAD_REACTORS
330
B1
330
480
330
481
330
482
330
483
330
484
330
485
330
486
330
487
330
488
330
489
102
}
330
A
100
AcDbSymbolTableRecord
100
AcDbDimStyleTableRecord
  2
AM_ISO
 70
     0
  4
"
 41
3.5
 42
0.5
 43
8.0
 44
0.5
 47
0.1
 48
0.1
 73
     0
 74
     0
 77
     1
 78
     8
 79
     2
140
3.5
141
0.0
143
0.0393701
146
0.71
147
0.75
172
     1
176
     3
177
     3
178
     2
271
     2
272
     2
283
     2
284
     8
340
11
371
    -1
372
    -1
  0
DIMSTYLE
105
CD
102
{ACAD_REACTORS
330
B1
330
2AD
330
2B0
330
2B3
330
2B6
330
2B9
330
2BC
330
2BF
330
2C2
330
2C5
330
2CA
102
}
330
A
100
AcDbSymbolTableRecord
100
AcDbDimStyleTableRecord
  2
AM_ISO$0
 70
     0
  4
"
 41
3.5
 42
0.5
 43
8.0
 44
0.5
 47
0.1
 48
0.1
 73
     0
 74
     0
 77
     1
 78
     8
 79
     2
140
3.5
141
0.0
143
0.0393701
146
0.71
147
0.75
172
     1
176
     3
177
     3
178
     2
271
     2
272
     2
283
     0
284
     8
340
11
371
    -1
372
    -1
  0
DIMSTYLE
105
CE
102
{ACAD_REACTORS
330
B1
102
}
330
A
100
AcDbSymbolTableRecord
100
AcDbDimStyleTableRecord
  2
AM_ISO$2
 70
     0
  4
"
 41
3.5
 42
0.5
 43
8.0
 44
0.5
 47
0.1
 48
0.1
 73
     0
 74
     0
 77
     1
 78
     8
 79
     2
140
3.5
141
0.0
143
0.0393701
146
0.71
147
0.7499999999999993
172
     1
176
     3
177
     3
178
     2
271
     2
272
     2
283
     2
284
     8
340
11
371
    -1
372
    -1
  0
DIMSTYLE
105
CF
330
A
100
AcDbSymbolTableRecord
100
AcDbDimStyleTableRecord
  2
AM_ISO$3
 70
     0
  4
"
 41
3.5
 42
1.0
 43
10.0
 44
1.0
 47
0.1
 48
0.1
 73
     0
 74
     0
 77
     1
 78
     8
 79
     2
140
3.5
141
0.0
143
0.0393701
146
0.71
147
0.75
176
     3
177
     3
178
     2
271
     2
272
     2
283
     2
284
     8
288
     1
289
     0
340
11
371
    -1
372
    -1
  0
DIMSTYLE
105
D0
330
A
100
AcDbSymbolTableRecord
100
AcDbDimStyleTableRecord
  2
AM_ISO$4
 70
     0
  4
"
 41
3.5
 42
1.0
 43
10.0
 44
1.0
 47
0.1
 48
0.1
 73
     0
 74
     0
 77
     1
 78
     8
 79
     2
140
3.5
141
0.0
143
0.0393701
146
0.71
147
0.75
176
     3
177
     3
178
     2
271
     2
272
     2
283
     2
284
     8
288
     1
289
     0
340
11
371
    -1
372
    -1
  0
DIMSTYLE
105
D1
330
A
100
AcDbSymbolTableRecord
100
AcDbDimStyleTableRecord
  2
AM_ISO$6
 70
     0
  4
"
 41
3.5
 42
0.5
 43
8.0
 44
1.0
 47
0.1
 48
0.1
 73
     0
 74
     0
 78
     8
 79
     2
140
3.5
141
0.0
143
0.0393701
146
0.71
147
0.75
172
     1
176
   256
177
     3
178
     2
271
     2
272
     2
283
     0
284
     8
340
11
371
    -1
372
    -1
  0
DIMSTYLE
105
D2
330
A
100
AcDbSymbolTableRecord
100
AcDbDimStyleTableRecord
  2
AM_ISO$7
 70
     0
  4
"
 41
3.5
 42
1.0
 43
10.0
 44
1.0
 47
0.1
 48
0.1
 73
     0
 74
     0
 77
     1
 78
     8
 79
     2
140
3.5
141
0.0
143
0.0393701
146
0.71
147
0.75
172
     1
176
     3
177
     3
178
     2
271
     2
272
     2
283
     0
284
     8
340
11
371
    -1
372
    -1
  0
DIMSTYLE
105
D3
330
A
100
AcDbSymbolTableRecord
100
AcDbDimStyleTableRecord
  2
AM_ISO$SF
 70
     0
  4
"
 41
3.5
 42
1.0
 43
8.0
 44
1.0
 47
0.1
 48
0.1
 73
     0
 74
     0
 75
     1
 76
     1
 77
     1
 78
     8
 79
     2
140
3.5
141
0.0
143
0.0393701
146
0.71
147
0.75
172
     1
176
     3
177
   256
178
     2
271
     2
272
     2
283
     2
284
     8
340
11
371
    -1
372
    -1
  0
DIMSTYLE
105
D4
330
A
100
AcDbSymbolTableRecord
100
AcDbDimStyleTableRecord
  2
AM_ISO$SH
 70
     0
  4
"
 41
3.5
 42
1.0
 43
8.0
 44
1.0
 47
0.1
 48
0.1
 73
     0
 74
     0
 75
     1
 76
     1
 77
     1
 78
     8
 79
     2
140
3.5
141
0.0
143
0.0393701
144
2.0
146
0.71
147
0.75
172
     1
173
     1
176
     3
177
   256
178
     2
271
     2
272
     2
283
     2
284
     8
340
11
343
D5
371
    -1
372
    -1
  0
DIMSTYLE
105
16D
330
A
100
AcDbSymbolTableRecord
100
AcDbDimStyleTableRecord
  2
Standard
 70
     0
340
11
  0
ENDTAB
  0
TABLE
  2
BLOCK_RECORD
  5
1
330
0
100
AcDbSymbolTable
 70
    53
  0
BLOCK_RECORD
  5
23
330
1
100
AcDbSymbolTableRecord
100
AcDbBlockTableRecord
  2
*Model_Space
340
26
  0
BLOCK_RECORD
  5
1F
330
1
100
AcDbSymbolTableRecord
100
AcDbBlockTableRecord
  2
*Paper_Space
340
22
  0
BLOCK_RECORD
  5
27
330
1
100
AcDbSymbolTableRecord
100
AcDbBlockTableRecord
  2
*Paper_Space0
340
2A
  0
BLOCK_RECORD
  5
D5
330
1
100
AcDbSymbolTableRecord
100
AcDbBlockTableRecord
  2
GENAXEH
340
0
  0
BLOCK_RECORD
  5
EE
330
1
100
AcDbSymbolTableRecord
100
AcDbBlockTableRecord
  2
*D3
340
0
  0
BLOCK_RECORD
  5
FA
330
1
100
AcDbSymbolTableRecord
100
AcDbBlockTableRecord
  2
*D4
340
0
  0
BLOCK_RECORD
  5
106
330
1
100
AcDbSymbolTableRecord
100
AcDbBlockTableRecord
  2
*D5
340
0
  0
BLOCK_RECORD
  5
112
330
1
100
AcDbSymbolTableRecord
100
AcDbBlockTableRecord
  2
*D6
340
0
  0
BLOCK_RECORD
  5
11E
330
1
100
AcDbSymbolTableRecord
100
AcDbBlockTableRecord
  2
*D7
340
0
  0
BLOCK_RECORD
  5
12A
330
1
100
AcDbSymbolTableRecord
100
AcDbBlockTableRecord
  2
*D8
340
0
  0
BLOCK_RECORD
  5
136
330
1
100
AcDbSymbolTableRecord
100
AcDbBlockTableRecord
  2
*D9
340
0
  0
BLOCK_RECORD
  5
142
330
1
100
AcDbSymbolTableRecord
100
AcDbBlockTableRecord
  2
*D10
340
0
  0
BLOCK_RECORD
  5
14E
330
1
100
AcDbSymbolTableRecord
100
AcDbBlockTableRecord
  2
*D11
340
0
  0
BLOCK_RECORD
  5
15A
330
1
100
AcDbSymbolTableRecord
100
AcDbBlockTableRecord
  2
*D12
340
0
  0
BLOCK_RECORD
  5
2CF
330
1
100
AcDbSymbolTableRecord
100
AcDbBlockTableRecord
  2
*D14
340
0
  0
BLOCK_RECORD
  5
2DB
330
1
100
AcDbSymbolTableRecord
100
AcDbBlockTableRecord
  2
*D15
340
0
  0
BLOCK_RECORD
  5
2E7
330
1
100
AcDbSymbolTableRecord
100
AcDbBlockTableRecord
  2
*D16
340
0
  0
BLOCK_RECORD
  5
2F3
330
1
100
AcDbSymbolTableRecord
100
AcDbBlockTableRecord
  2
*D17
340
0
  0
BLOCK_RECORD
  5
2FF
330
1
100
AcDbSymbolTableRecord
100
AcDbBlockTableRecord
  2
*D18
340
0
  0
BLOCK_RECORD
  5
30B
330
1
100
AcDbSymbolTableRecord
100
AcDbBlockTableRecord
  2
*D19
340
0
  0
BLOCK_RECORD
  5
317
330
1
100
AcDbSymbolTableRecord
100
AcDbBlockTableRecord
  2
*D20
340
0
  0
BLOCK_RECORD
  5
325
330
1
100
AcDbSymbolTableRecord
100
AcDbBlockTableRecord
  2
*D21
340
0
  0
BLOCK_RECORD
  5
331
330
1
100
AcDbSymbolTableRecord
100
AcDbBlockTableRecord
  2
*D22
340
0
  0
BLOCK_RECORD
  5
33D
330
1
100
AcDbSymbolTableRecord
100
AcDbBlockTableRecord
  2
*D23
340
0
  0
BLOCK_RECORD
  5
355
330
1
100
AcDbSymbolTableRecord
100
AcDbBlockTableRecord
  2
SYMTB014-001
340
0
102
{BLKREFS
331
475
331
476
331
477
331
478
102
}
  0
BLOCK_RECORD
  5
35D
330
1
100
AcDbSymbolTableRecord
100
AcDbBlockTableRecord
  2
*D25
340
0
  0
BLOCK_RECORD
  5
369
330
1
100
AcDbSymbolTableRecord
100
AcDbBlockTableRecord
  2
_Open
340
0
102
{BLKREFS
331
3A4
331
3A5
331
3AF
331
3B0
331
3BB
331
3BC
331
3C7
331
3C8
331
3D2
331
3D3
331
362
331
363
331
374
331
375
331
380
331
381
331
38C
331
38D
331
398
331
399
331
718
331
719
331
721
331
722
331
72A
331
72B
331
733
331
734
331
73C
331
73D
331
745
331
746
331
74D
331
74E
331
756
331
757
331
75F
331
760
331
767
331
768
102
}
  0
BLOCK_RECORD
  5
36F
330
1
100
AcDbSymbolTableRecord
100
AcDbBlockTableRecord
  2
*D27
340
0
  0
BLOCK_RECORD
  5
37B
330
1
100
AcDbSymbolTableRecord
100
AcDbBlockTableRecord
  2
*D28
340
0
  0
BLOCK_RECORD
  5
387
330
1
100
AcDbSymbolTableRecord
100
AcDbBlockTableRecord
  2
*D29
340
0
  0
BLOCK_RECORD
  5
393
330
1
100
AcDbSymbolTableRecord
100
AcDbBlockTableRecord
  2
*D30
340
0
  0
BLOCK_RECORD
  5
39F
330
1
100
AcDbSymbolTableRecord
100
AcDbBlockTableRecord
  2
*D31
340
0
  0
BLOCK_RECORD
  5
3AB
330
1
100
AcDbSymbolTableRecord
100
AcDbBlockTableRecord
  2
*D32
340
0
  0
BLOCK_RECORD
  5
3B6
330
1
100
AcDbSymbolTableRecord
100
AcDbBlockTableRecord
  2
*D33
340
0
  0
BLOCK_RECORD
  5
3C2
330
1
100
AcDbSymbolTableRecord
100
AcDbBlockTableRecord
  2
*D34
340
0
  0
BLOCK_RECORD
  5
3CE
330
1
100
AcDbSymbolTableRecord
100
AcDbBlockTableRecord
  2
*D35
340
0
  0
BLOCK_RECORD
  5
3D9
330
1
100
AcDbSymbolTableRecord
100
AcDbBlockTableRecord
  2
*U36
340
0
102
{BLKREFS
331
479
331
517
102
}
  0
BLOCK_RECORD
  5
3DD
330
1
100
AcDbSymbolTableRecord
100
AcDbBlockTableRecord
  2
*U37
340
0
102
{BLKREFS
331
47A
331
518
102
}
  0
BLOCK_RECORD
  5
519
330
1
100
AcDbSymbolTableRecord
100
AcDbBlockTableRecord
  2
*D39
340
0
  0
BLOCK_RECORD
  5
525
330
1
100
AcDbSymbolTableRecord
100
AcDbBlockTableRecord
  2
*D40
340
0
  0
BLOCK_RECORD
  5
52F
330
1
100
AcDbSymbolTableRecord
100
AcDbBlockTableRecord
  2
*D41
340
0
  0
BLOCK_RECORD
  5
539
330
1
100
AcDbSymbolTableRecord
100
AcDbBlockTableRecord
  2
*D42
340
0
  0
BLOCK_RECORD
  5
543
330
1
100
AcDbSymbolTableRecord
100
AcDbBlockTableRecord
  2
*D43
340
0
  0
BLOCK_RECORD
  5
54D
330
1
100
AcDbSymbolTableRecord
100
AcDbBlockTableRecord
  2
*D44
340
0
  0
BLOCK_RECORD
  5
557
330
1
100
AcDbSymbolTableRecord
100
AcDbBlockTableRecord
  2
*D45
340
0
  0
BLOCK_RECORD
  5
560
330
1
100
AcDbSymbolTableRecord
100
AcDbBlockTableRecord
  2
*D46
340
0
  0
BLOCK_RECORD
  5
56A
330
1
100
AcDbSymbolTableRecord
100
AcDbBlockTableRecord
  2
*D47
340
0
  0
BLOCK_RECORD
  5
574
330
1
100
AcDbSymbolTableRecord
100
AcDbBlockTableRecord
  2
*D48
340
0
  0
BLOCK_RECORD
  5
5ED
330
1
100
AcDbSymbolTableRecord
100
AcDbBlockTableRecord
  2
A$C330D16BA
340
0
  0
BLOCK_RECORD
  5
77A
330
1
100
AcDbSymbolTableRecord
100
AcDbBlockTableRecord
  2
*S51
340
0
  0
BLOCK_RECORD
  5
783
330
1
100
AcDbSymbolTableRecord
100
AcDbBlockTableRecord
  2
*S52
340
0
  0
ENDTAB
  0
ENDSEC
  0
SECTION
  2
BLOCKS
  0
BLOCK
  5
24
330
23
100
AcDbEntity
  8
0
100
AcDbBlockBegin
  2
*Model_Space
 70
     0
 10
0.0
 20
0.0
 30
0.0
  3
*Model_Space
  1

  0
ENDBLK
  5
25
330
23
100
AcDbEntity
  8
0
100
AcDbBlockEnd
  0
BLOCK
  5
20
330
1F
100
AcDbEntity
 67
     1
  8
0
100
AcDbBlockBegin
  2
*Paper_Space
 70
     0
 10
0.0
 20
0.0
 30
0.0
  3
*Paper_Space
  1

  0
ENDBLK
  5
21
330
1F
100
AcDbEntity
 67
     1
  8
0
100
AcDbBlockEnd
  0
BLOCK
  5
28
330
27
100
AcDbEntity
  8
0
100
AcDbBlockBegin
  2
*Paper_Space0
 70
     0
 10
0.0
 20
0.0
 30
0.0
  3
*Paper_Space0
  1

  0
ENDBLK
  5
29
330
27
100
AcDbEntity
  8
0
100
AcDbBlockEnd
  0
BLOCK
  5
D6
330
D5
100
AcDbEntity
  8
0
100
AcDbBlockBegin
  2
GENAXEH
 70
     0
 10
0.0
 20
0.0
 30
0.0
  3
GENAXEH
  1

  0
LINE
  5
D7
330
D5
100
AcDbEntity
  8
0
100
AcDbLine
 10
-1.0
 20
0.0
 30
0.0
 11
1.0
 21
0.0
 31
0.0
  0
ENDBLK
  5
D8
330
D5
100
AcDbEntity
  8
0
100
AcDbBlockEnd
  0
BLOCK
  5
EF
330
EE
100
AcDbEntity
  8
0
100
AcDbBlockBegin
  2
*D3
 70
     1
 10
0.0
 20
0.0
 30
0.0
  3
*D3
  1

  0
LINE
  5
F0
330
EE
100
AcDbEntity
  8
AM_5
100
AcDbLine
 10
86.49599514762064
 20
233.7901086793766
 30
0.0
 11
57.99605618278068
 21
233.7901086793766
 31
0.0
  0
LINE
  5
F1
330
EE
100
AcDbEntity
  8
AM_5
100
AcDbLine
 10
86.49599514762064
 20
191.7900781618065
 30
0.0
 11
57.99605618278068
 21
191.7900781618066
 31
0.0
  0
LINE
  5
F2
330
EE
100
AcDbEntity
  8
AM_5
100
AcDbLine
 10
58.99605618278068
 20
230.7901086793766
 30
0.0
 11
58.99605618278068
 21
194.7900781618066
 31
0.0
  0
SOLID
  5
F3
330
EE
100
AcDbEntity
  8
AM_5
100
AcDbTrace
 10
58.49605618278069
 20
230.7901086793766
 30
0.0
 11
59.49605618278068
 21
230.7901086793766
 31
0.0
 12
58.99605618278068
 22
233.7901086793766
 32
0.0
 13
58.99605618278068
 23
233.7901086793766
 33
0.0
  0
SOLID
  5
F4
330
EE
100
AcDbEntity
  8
AM_5
100
AcDbTrace
 10
58.49605618278068
 20
194.7900781618066
 30
0.0
 11
59.49605618278067
 21
194.7900781618066
 31
0.0
 12
58.99605618278068
 22
191.7900781618066
 32
0.0
 13
58.99605618278068
 23
191.7900781618066
 33
0.0
  0
MTEXT
  5
F5
330
EE
100
AcDbEntity
  8
AM_5
 62
     2
100
AcDbMText
 10
56.21179222338978
 20
212.7900934205916
 30
0.0
 40
3.5
 41
0.0
 71
     5
 72
     1
  1
φ42
 11
0.0000000000000001
 21
1.0
 31
0.0
 73
     1
 44
1.0
1001
ACAD
1000
MTEXTBEGIN
1070
    73
1070
     1
1070
    44
1040
1.0
1070
    74
1070
     0
1000
MTEXTEND
  0
POINT
  5
F6
330
EE
100
AcDbEntity
  8
Defpoints
 62
     0
100
AcDbPoint
 10
87.49599514762065
 20
233.7901086793766
 30
0.0
  0
POINT
  5
F7
330
EE
100
AcDbEntity
  8
Defpoints
 62
     0
100
AcDbPoint
 10
87.49599514762065
 20
191.7900781618065
 30
0.0
  0
POINT
  5
F8
330
EE
100
AcDbEntity
  8
Defpoints
 62
     0
100
AcDbPoint
 10
58.99605618278068
 20
191.7900781618066
 30
0.0
  0
ENDBLK
  5
F9
330
EE
100
AcDbEntity
  8
0
100
AcDbBlockEnd
  0
BLOCK
  5
FB
330
FA
100
AcDbEntity
  8
0
100
AcDbBlockBegin
  2
*D4
 70
     1
 10
0.0
 20
0.0
 30
0.0
  3
*D4
  1

  0
LINE
  5
FC
330
FA
100
AcDbEntity
  8
AM_5
100
AcDbLine
 10
172.0940939025106
 20
245.2900934205966
 30
0.0
 11
49.99605618278067
 21
245.2900934205966
 31
0.0
  0
LINE
  5
FD
330
FA
100
AcDbEntity
  8
AM_5
100
AcDbLine
 10
172.0940939025106
 20
180.2900629030166
 30
0.0
 11
49.99605618278066
 21
180.2900629030166
 31
0.0
  0
LINE
  5
FE
330
FA
100
AcDbEntity
  8
AM_5
100
AcDbLine
 10
50.99605618278069
 20
242.2900934205966
 30
0.0
 11
50.99605618278067
 21
183.2900629030166
 31
0.0
  0
SOLID
  5
FF
330
FA
100
AcDbEntity
  8
AM_5
100
AcDbTrace
 10
50.49605618278068
 20
242.2900934205966
 30
0.0
 11
51.49605618278068
 21
242.2900934205966
 31
0.0
 12
50.99605618278069
 22
245.2900934205966
 32
0.0
 13
50.99605618278069
 23
245.2900934205966
 33
0.0
  0
SOLID
  5
100
330
FA
100
AcDbEntity
  8
AM_5
100
AcDbTrace
 10
50.49605618278067
 20
183.2900629030166
 30
0.0
 11
51.49605618278067
 21
183.2900629030166
 31
0.0
 12
50.99605618278067
 22
180.2900629030166
 32
0.0
 13
50.99605618278067
 23
180.2900629030166
 33
0.0
  0
MTEXT
  5
101
330
FA
100
AcDbEntity
  8
AM_5
 62
     2
100
AcDbMText
 10
48.21179222338978
 20
212.7900781618066
 30
0.0
 40
3.5
 41
0.0
 71
     5
 72
     1
  1
φ65
 11
0.0000000000000001
 21
1.0
 31
0.0
 73
     1
 44
1.0
1001
ACAD
1000
MTEXTBEGIN
1070
    73
1070
     1
1070
    44
1040
1.0
1070
    74
1070
     0
1000
MTEXTEND
  0
POINT
  5
102
330
FA
100
AcDbEntity
  8
Defpoints
 62
     0
100
AcDbPoint
 10
173.0940939025106
 20
245.2900934205966
 30
0.0
  0
POINT
  5
103
330
FA
100
AcDbEntity
  8
Defpoints
 62
     0
100
AcDbPoint
 10
173.0940939025106
 20
180.2900629030166
 30
0.0
  0
POINT
  5
104
330
FA
100
AcDbEntity
  8
Defpoints
 62
     0
100
AcDbPoint
 10
50.99605618278067
 20
180.2900629030166
 30
0.0
  0
ENDBLK
  5
105
330
FA
100
AcDbEntity
  8
0
100
AcDbBlockEnd
  0
BLOCK
  5
107
330
106
100
AcDbEntity
  8
0
100
AcDbBlockBegin
  2
*D5
 70
     1
 10
0.0
 20
0.0
 30
0.0
  3
*D5
  1

  0
LINE
  5
108
330
106
100
AcDbEntity
  8
AM_5
100
AcDbLine
 10
244.4960104064106
 20
240.2901086793766
 30
0.0
 11
263.0390859679408
 21
240.2901086793766
 31
0.0
  0
LINE
  5
109
330
106
100
AcDbEntity
  8
AM_5
100
AcDbLine
 10
244.4960104064106
 20
185.2900934205966
 30
0.0
 11
263.0390859679408
 21
185.2900934205966
 31
0.0
  0
LINE
  5
10A
330
106
100
AcDbEntity
  8
AM_5
100
AcDbLine
 10
262.0390859679408
 20
237.2901086793766
 30
0.0
 11
262.0390859679408
 21
188.2900934205965
 31
0.0
  0
SOLID
  5
10B
330
106
100
AcDbEntity
  8
AM_5
100
AcDbTrace
 10
261.5390859679408
 20
237.2901086793766
 30
0.0
 11
262.5390859679407
 21
237.2901086793766
 31
0.0
 12
262.0390859679408
 22
240.2901086793766
 32
0.0
 13
262.0390859679408
 23
240.2901086793766
 33
0.0
  0
SOLID
  5
10C
330
106
100
AcDbEntity
  8
AM_5
100
AcDbTrace
 10
261.5390859679408
 20
188.2900934205965
 30
0.0
 11
262.5390859679407
 21
188.2900934205965
 31
0.0
 12
262.0390859679408
 22
185.2900934205966
 32
0.0
 13
262.0390859679408
 23
185.2900934205966
 33
0.0
  0
MTEXT
  5
10D
330
106
100
AcDbEntity
  8
AM_5
 62
     2
100
AcDbMText
 10
259.2548220085499
 20
212.7901010499866
 30
0.0
 40
3.5
 41
0.0
 71
     5
 72
     1
  1
φ55
 11
0.0000000000000001
 21
1.0
 31
0.0
 73
     1
 44
1.0
1001
ACAD
1000
MTEXTBEGIN
1070
    73
1070
     1
1070
    44
1040
1.0
1070
    74
1070
     0
1000
MTEXTEND
  0
POINT
  5
10E
330
106
100
AcDbEntity
  8
Defpoints
 62
     0
100
AcDbPoint
 10
243.4960104064106
 20
240.2901086793766
 30
0.0
  0
POINT
  5
10F
330
106
100
AcDbEntity
  8
Defpoints
 62
     0
100
AcDbPoint
 10
243.4960104064106
 20
185.2900934205966
 30
0.0
  0
POINT
  5
110
330
106
100
AcDbEntity
  8
Defpoints
 62
     0
100
AcDbPoint
 10
262.0390859679408
 20
185.2900934205966
 30
0.0
  0
ENDBLK
  5
111
330
106
100
AcDbEntity
  8
0
100
AcDbBlockEnd
  0
BLOCK
  5
113
330
112
100
AcDbEntity
  8
0
100
AcDbBlockBegin
  2
*D6
 70
     1
 10
0.0
 20
0.0
 30
0.0
  3
*D6
  1

  0
LINE
  5
114
330
112
100
AcDbEntity
  8
AM_5
100
AcDbLine
 10
201.1658254698907
 20
182.7900629030166
 30
0.0
 11
271.0390859679407
 21
182.7900629030166
 31
0.0
  0
LINE
  5
115
330
112
100
AcDbEntity
  8
AM_5
100
AcDbLine
 10
201.1658254698907
 20
242.7900934205966
 30
0.0
 11
271.0390859679407
 21
242.7900934205966
 31
0.0
  0
LINE
  5
116
330
112
100
AcDbEntity
  8
AM_5
100
AcDbLine
 10
270.0390859679408
 20
185.7900629030165
 30
0.0
 11
270.0390859679408
 21
239.7900934205966
 31
0.0
  0
SOLID
  5
117
330
112
100
AcDbEntity
  8
AM_5
100
AcDbTrace
 10
269.5390859679408
 20
185.7900629030165
 30
0.0
 11
270.5390859679408
 21
185.7900629030165
 31
0.0
 12
270.0390859679408
 22
182.7900629030166
 32
0.0
 13
270.0390859679408
 23
182.7900629030166
 33
0.0
  0
SOLID
  5
118
330
112
100
AcDbEntity
  8
AM_5
100
AcDbTrace
 10
269.5390859679408
 20
239.7900934205966
 30
0.0
 11
270.5390859679408
 21
239.7900934205966
 31
0.0
 12
270.0390859679408
 22
242.7900934205966
 32
0.0
 13
270.0390859679408
 23
242.7900934205966
 33
0.0
  0
MTEXT
  5
119
330
112
100
AcDbEntity
  8
AM_5
 62
     2
100
AcDbMText
 10
267.2548220085499
 20
212.7900781618066
 30
0.0
 40
3.5
 41
0.0
 71
     5
 72
     1
  1
φ60
 11
0.0000000000000001
 21
1.0
 31
0.0
 73
     1
 44
1.0
1001
ACAD
1000
MTEXTBEGIN
1070
    73
1070
     1
1070
    44
1040
1.0
1070
    74
1070
     0
1000
MTEXTEND
  0
POINT
  5
11A
330
112
100
AcDbEntity
  8
Defpoints
 62
     0
100
AcDbPoint
 10
200.1658254698907
 20
182.7900629030166
 30
0.0
  0
POINT
  5
11B
330
112
100
AcDbEntity
  8
Defpoints
 62
     0
100
AcDbPoint
 10
200.1658254698907
 20
242.7900934205966
 30
0.0
  0
POINT
  5
11C
330
112
100
AcDbEntity
  8
Defpoints
 62
     0
100
AcDbPoint
 10
270.0390859679408
 20
242.7900934205966
 30
0.0
  0
ENDBLK
  5
11D
330
112
100
AcDbEntity
  8
0
100
AcDbBlockEnd
  0
BLOCK
  5
11F
330
11E
100
AcDbEntity
  8
0
100
AcDbBlockBegin
  2
*D7
 70
     1
 10
0.0
 20
0.0
 30
0.0
  3
*D7
  1

  0
LINE
  5
120
330
11E
100
AcDbEntity
  8
AM_5
100
AcDbLine
 10
86.49602566520071
 20
191.7900781618065
 30
0.0
 11
86.49602566520071
 21
163.8939142602726
 31
0.0
  0
LINE
  5
121
330
11E
100
AcDbEntity
  8
AM_5
100
AcDbLine
 10
135.4959951476206
 20
188.3052911744965
 30
0.0
 11
135.4959951476206
 21
163.8939142602726
 31
0.0
  0
LINE
  5
122
330
11E
100
AcDbEntity
  8
AM_5
100
AcDbLine
 10
89.4960256652007
 20
164.8939142602726
 30
0.0
 11
132.4959951476206
 21
164.8939142602726
 31
0.0
  0
SOLID
  5
123
330
11E
100
AcDbEntity
  8
AM_5
100
AcDbTrace
 10
89.4960256652007
 20
165.3939142602726
 30
0.0
 11
89.4960256652007
 21
164.3939142602726
 31
0.0
 12
86.49602566520071
 22
164.8939142602726
 32
0.0
 13
86.49602566520071
 23
164.8939142602726
 33
0.0
  0
SOLID
  5
124
330
11E
100
AcDbEntity
  8
AM_5
100
AcDbTrace
 10
132.4959951476206
 20
165.3939142602726
 30
0.0
 11
132.4959951476206
 21
164.3939142602726
 31
0.0
 12
135.4959951476206
 22
164.8939142602726
 32
0.0
 13
135.4959951476206
 23
164.8939142602726
 33
0.0
  0
MTEXT
  5
125
330
11E
100
AcDbEntity
  8
AM_5
 62
     2
100
AcDbMText
 10
105.4089324359088
 20
167.3939142602726
 30
0.0
 40
3.5
 41
0.0
 71
     5
 72
     1
  1
49
 73
     1
 44
1.0
1001
ACAD
1000
MTEXTBEGIN
1070
    73
1070
     1
1070
    44
1040
1.0
1070
    74
1070
     0
1000
MTEXTEND
  0
POINT
  5
126
330
11E
100
AcDbEntity
  8
Defpoints
 62
     0
100
AcDbPoint
 10
86.49602566520071
 20
192.7900781618065
 30
0.0
  0
POINT
  5
127
330
11E
100
AcDbEntity
  8
Defpoints
 62
     0
100
AcDbPoint
 10
135.4959951476206
 20
189.3052911744965
 30
0.0
  0
POINT
  5
128
330
11E
100
AcDbEntity
  8
Defpoints
 62
     0
100
AcDbPoint
 10
135.4959951476206
 20
164.8939142602726
 30
0.0
  0
ENDBLK
  5
129
330
11E
100
AcDbEntity
  8
0
100
AcDbBlockEnd
  0
BLOCK
  5
12B
330
12A
100
AcDbEntity
  8
0
100
AcDbBlockBegin
  2
*D8
 70
     1
 10
0.0
 20
0.0
 30
0.0
  3
*D8
  1

  0
LINE
  5
12C
330
12A
100
AcDbEntity
  8
AM_5
100
AcDbLine
 10
86.49599514762064
 20
191.7900781618065
 30
0.0
 11
86.49599514762064
 21
155.5400934205968
 31
0.0
  0
LINE
  5
12D
330
12A
100
AcDbEntity
  8
AM_5
100
AcDbLine
 10
196.4960104064106
 20
182.1663238389837
 30
0.0
 11
196.4960104064106
 21
155.5400934205968
 31
0.0
  0
LINE
  5
12E
330
12A
100
AcDbEntity
  8
AM_5
100
AcDbLine
 10
89.49599514762065
 20
156.5400934205968
 30
0.0
 11
193.4960104064106
 21
156.5400934205968
 31
0.0
  0
SOLID
  5
12F
330
12A
100
AcDbEntity
  8
AM_5
100
AcDbTrace
 10
89.49599514762065
 20
157.0400934205968
 30
0.0
 11
89.49599514762065
 21
156.0400934205968
 31
0.0
 12
86.49599514762064
 22
156.5400934205968
 32
0.0
 13
86.49599514762064
 23
156.5400934205968
 33
0.0
  0
SOLID
  5
130
330
12A
100
AcDbEntity
  8
AM_5
100
AcDbTrace
 10
193.4960104064106
 20
157.0400934205968
 30
0.0
 11
193.4960104064106
 21
156.0400934205968
 31
0.0
 12
196.4960104064106
 22
156.5400934205968
 32
0.0
 13
196.4960104064106
 23
156.5400934205968
 33
0.0
  0
MTEXT
  5
131
330
12A
100
AcDbEntity
  8
AM_5
 62
     2
100
AcDbMText
 10
141.4960027770156
 20
159.0400934205968
 30
0.0
 40
3.5
 41
0.0
 71
     5
 72
     1
  1
110
 73
     1
 44
1.0
1001
ACAD
1000
MTEXTBEGIN
1070
    73
1070
     1
1070
    44
1040
1.0
1070
    74
1070
     0
1000
MTEXTEND
  0
POINT
  5
132
330
12A
100
AcDbEntity
  8
Defpoints
 62
     0
100
AcDbPoint
 10
86.49599514762064
 20
192.7900781618065
 30
0.0
  0
POINT
  5
133
330
12A
100
AcDbEntity
  8
Defpoints
 62
     0
100
AcDbPoint
 10
196.4960104064106
 20
183.1663238389837
 30
0.0
  0
POINT
  5
134
330
12A
100
AcDbEntity
  8
Defpoints
 62
     0
100
AcDbPoint
 10
196.4960104064106
 20
156.5400934205968
 30
0.0
  0
ENDBLK
  5
135
330
12A
100
AcDbEntity
  8
0
100
AcDbBlockEnd
  0
BLOCK
  5
137
330
136
100
AcDbEntity
  8
0
100
AcDbBlockBegin
  2
*D9
 70
     1
 10
0.0
 20
0.0
 30
0.0
  3
*D9
  1

  0
LINE
  5
138
330
136
100
AcDbEntity
  8
AM_5
100
AcDbLine
 10
196.4960104064106
 20
181.7900934205965
 30
0.0
 11
196.4960104064106
 21
155.5400934205968
 31
0.0
  0
LINE
  5
139
330
136
100
AcDbEntity
  8
AM_5
100
AcDbLine
 10
204.4960104064106
 20
189.2900934205965
 30
0.0
 11
204.4960104064106
 21
155.5400934205968
 31
0.0
  0
LINE
  5
13A
330
136
100
AcDbEntity
  8
AM_5
100
AcDbLine
 10
199.4960104064106
 20
156.5400934205968
 30
0.0
 11
201.4960104064106
 21
156.5400934205968
 31
0.0
  0
SOLID
  5
13B
330
136
100
AcDbEntity
  8
AM_5
100
AcDbTrace
 10
199.4960104064106
 20
157.0400934205968
 30
0.0
 11
199.4960104064106
 21
156.0400934205968
 31
0.0
 12
196.4960104064106
 22
156.5400934205968
 32
0.0
 13
196.4960104064106
 23
156.5400934205968
 33
0.0
  0
SOLID
  5
13C
330
136
100
AcDbEntity
  8
AM_5
100
AcDbTrace
 10
201.4960104064106
 20
157.0400934205968
 30
0.0
 11
201.4960104064106
 21
156.0400934205968
 31
0.0
 12
204.4960104064106
 22
156.5400934205968
 32
0.0
 13
204.4960104064106
 23
156.5400934205968
 33
0.0
  0
MTEXT
  5
13D
330
136
100
AcDbEntity
  8
AM_5
 62
     2
100
AcDbMText
 10
200.4960104064106
 20
159.0400934205968
 30
0.0
 40
3.5
 41
0.0
 71
     5
 72
     1
  1
8
 73
     1
 44
1.0
1001
ACAD
1000
MTEXTBEGIN
1070
    73
1070
     1
1070
    44
1040
1.0
1070
    74
1070
     0
1000
MTEXTEND
  0
POINT
  5
13E
330
136
100
AcDbEntity
  8
Defpoints
 62
     0
100
AcDbPoint
 10
196.4960104064106
 20
182.7900934205965
 30
0.0
  0
POINT
  5
13F
330
136
100
AcDbEntity
  8
Defpoints
 62
     0
100
AcDbPoint
 10
204.4960104064106
 20
190.2900934205965
 30
0.0
  0
POINT
  5
140
330
136
100
AcDbEntity
  8
Defpoints
 62
     0
100
AcDbPoint
 10
204.4960104064106
 20
156.5400934205968
 30
0.0
  0
ENDBLK
  5
141
330
136
100
AcDbEntity
  8
0
100
AcDbBlockEnd
  0
BLOCK
  5
143
330
142
100
AcDbEntity
  8
0
100
AcDbBlockBegin
  2
*D10
 70
     1
 10
0.0
 20
0.0
 30
0.0
  3
*D10
  1

  0
LINE
  5
144
330
142
100
AcDbEntity
  8
AM_5
100
AcDbLine
 10
86.49602566520071
 20
191.7900781618065
 30
0.0
 11
86.49602566520071
 21
147.5400934205968
 31
0.0
  0
LINE
  5
145
330
142
100
AcDbEntity
  8
AM_5
100
AcDbLine
 10
245.4960104064106
 20
186.2900934205965
 30
0.0
 11
245.4960104064106
 21
147.5400934205968
 31
0.0
  0
LINE
  5
146
330
142
100
AcDbEntity
  8
AM_5
100
AcDbLine
 10
89.4960256652007
 20
148.5400934205968
 30
0.0
 11
242.4960104064106
 21
148.5400934205968
 31
0.0
  0
SOLID
  5
147
330
142
100
AcDbEntity
  8
AM_5
100
AcDbTrace
 10
89.4960256652007
 20
149.0400934205968
 30
0.0
 11
89.4960256652007
 21
148.0400934205968
 31
0.0
 12
86.49602566520071
 22
148.5400934205968
 32
0.0
 13
86.49602566520071
 23
148.5400934205968
 33
0.0
  0
SOLID
  5
148
330
142
100
AcDbEntity
  8
AM_5
100
AcDbTrace
 10
242.4960104064106
 20
149.0400934205968
 30
0.0
 11
242.4960104064106
 21
148.0400934205968
 31
0.0
 12
245.4960104064106
 22
148.5400934205968
 32
0.0
 13
245.4960104064106
 23
148.5400934205968
 33
0.0
  0
MTEXT
  5
149
330
142
100
AcDbEntity
  8
AM_5
 62
     2
100
AcDbMText
 10
165.9960180358056
 20
151.0400934205968
 30
0.0
 40
3.5
 41
0.0
 71
     5
 72
     1
  1
MAX.159
 73
     1
 44
1.0
1001
ACAD
1000
MTEXTBEGIN
1070
    73
1070
     1
1070
    44
1040
1.0
1070
    74
1070
     0
1000
MTEXTEND
  0
POINT
  5
14A
330
142
100
AcDbEntity
  8
Defpoints
 62
     0
100
AcDbPoint
 10
86.49602566520071
 20
192.7900781618065
 30
0.0
  0
POINT
  5
14B
330
142
100
AcDbEntity
  8
Defpoints
 62
     0
100
AcDbPoint
 10
245.4960104064106
 20
187.2900934205965
 30
0.0
  0
POINT
  5
14C
330
142
100
AcDbEntity
  8
Defpoints
 62
     0
100
AcDbPoint
 10
245.4960104064106
 20
148.5400934205968
 30
0.0
  0
ENDBLK
  5
14D
330
142
100
AcDbEntity
  8
0
100
AcDbBlockEnd
  0
BLOCK
  5
14F
330
14E
100
AcDbEntity
  8
0
100
AcDbBlockBegin
  2
*D11
 70
     1
 10
0.0
 20
0.0
 30
0.0
  3
*D11
  1

  0
LINE
  5
150
330
14E
100
AcDbEntity
  8
AM_5
100
AcDbLine
 10
158.4959951476206
 20
236.2901086793766
 30
0.0
 11
158.4959951476206
 21
261.2900934205965
 31
0.0
  0
LINE
  5
151
330
14E
100
AcDbEntity
  8
AM_5
100
AcDbLine
 10
196.4960104064106
 20
243.7900934205966
 30
0.0
 11
196.4960104064106
 21
261.2900934205965
 31
0.0
  0
LINE
  5
152
330
14E
100
AcDbEntity
  8
AM_5
100
AcDbLine
 10
161.4959951476206
 20
260.2900934205965
 30
0.0
 11
193.4960104064106
 21
260.2900934205965
 31
0.0
  0
SOLID
  5
153
330
14E
100
AcDbEntity
  8
AM_5
100
AcDbTrace
 10
161.4959951476206
 20
260.7900934205965
 30
0.0
 11
161.4959951476206
 21
259.7900934205965
 31
0.0
 12
158.4959951476206
 22
260.2900934205965
 32
0.0
 13
158.4959951476206
 23
260.2900934205965
 33
0.0
  0
SOLID
  5
154
330
14E
100
AcDbEntity
  8
AM_5
100
AcDbTrace
 10
193.4960104064106
 20
260.7900934205965
 30
0.0
 11
193.4960104064106
 21
259.7900934205965
 31
0.0
 12
196.4960104064106
 22
260.2900934205965
 32
0.0
 13
196.4960104064106
 23
260.2900934205965
 33
0.0
  0
MTEXT
  5
155
330
14E
100
AcDbEntity
  8
AM_5
 62
     2
100
AcDbMText
 10
177.4960027770156
 20
262.7900934205965
 30
0.0
 40
3.5
 41
0.0
 71
     5
 72
     1
  1
38
 73
     1
 44
1.0
1001
ACAD
1000
MTEXTBEGIN
1070
    73
1070
     1
1070
    44
1040
1.0
1070
    74
1070
     0
1000
MTEXTEND
  0
POINT
  5
156
330
14E
100
AcDbEntity
  8
Defpoints
 62
     0
100
AcDbPoint
 10
158.4959951476206
 20
235.2901086793766
 30
0.0
  0
POINT
  5
157
330
14E
100
AcDbEntity
  8
Defpoints
 62
     0
100
AcDbPoint
 10
196.4960104064106
 20
242.7900934205966
 30
0.0
  0
POINT
  5
158
330
14E
100
AcDbEntity
  8
Defpoints
 62
     0
100
AcDbPoint
 10
196.4960104064106
 20
260.2900934205965
 30
0.0
  0
ENDBLK
  5
159
330
14E
100
AcDbEntity
  8
0
100
AcDbBlockEnd
  0
BLOCK
  5
15B
330
15A
100
AcDbEntity
  8
0
100
AcDbBlockBegin
  2
*D12
 70
     1
 10
0.0
 20
0.0
 30
0.0
  3
*D12
  1

  0
LINE
  5
15C
330
15A
100
AcDbEntity
  8
AM_5
100
AcDbLine
 10
170.4960256652007
 20
183.7900476442266
 30
0.0
 11
170.4960256652007
 21
163.5400934205968
 31
0.0
  0
LINE
  5
15D
330
15A
100
AcDbEntity
  8
AM_5
100
AcDbLine
 10
180.4960104064106
 20
179.5400934205965
 30
0.0
 11
180.4960104064106
 21
163.5400934205968
 31
0.0
  0
LINE
  5
15E
330
15A
100
AcDbEntity
  8
AM_5
100
AcDbLine
 10
173.4960256652007
 20
164.5400934205968
 30
0.0
 11
177.4960104064106
 21
164.5400934205968
 31
0.0
  0
SOLID
  5
15F
330
15A
100
AcDbEntity
  8
AM_5
100
AcDbTrace
 10
173.4960256652007
 20
165.0400934205968
 30
0.0
 11
173.4960256652007
 21
164.0400934205968
 31
0.0
 12
170.4960256652007
 22
164.5400934205968
 32
0.0
 13
170.4960256652007
 23
164.5400934205968
 33
0.0
  0
SOLID
  5
160
330
15A
100
AcDbEntity
  8
AM_5
100
AcDbTrace
 10
177.4960104064106
 20
165.0400934205968
 30
0.0
 11
177.4960104064106
 21
164.0400934205968
 31
0.0
 12
180.4960104064106
 22
164.5400934205968
 32
0.0
 13
180.4960104064106
 23
164.5400934205968
 33
0.0
  0
MTEXT
  5
161
330
15A
100
AcDbEntity
  8
AM_5
 62
     2
100
AcDbMText
 10
175.4960180358056
 20
167.0400934205968
 30
0.0
 40
3.5
 41
0.0
 71
     5
 72
     1
  1
10
 73
     1
 44
1.0
1001
ACAD
1000
MTEXTBEGIN
1070
    73
1070
     1
1070
    44
1040
1.0
1070
    74
1070
     0
1000
MTEXTEND
  0
POINT
  5
162
330
15A
100
AcDbEntity
  8
Defpoints
 62
     0
100
AcDbPoint
 10
170.4960256652007
 20
184.7900476442266
 30
0.0
  0
POINT
  5
163
330
15A
100
AcDbEntity
  8
Defpoints
 62
     0
100
AcDbPoint
 10
180.4960104064106
 20
180.5400934205966
 30
0.0
  0
POINT
  5
164
330
15A
100
AcDbEntity
  8
Defpoints
 62
     0
100
AcDbPoint
 10
180.4960104064106
 20
164.5400934205968
 30
0.0
  0
ENDBLK
  5
165
330
15A
100
AcDbEntity
  8
0
100
AcDbBlockEnd
  0
BLOCK
  5
2D9
330
2CF
100
AcDbEntity
  8
0
100
AcDbBlockBegin
  2
*D14
 70
     1
 10
0.0
 20
0.0
 30
0.0
  3
*D14
  1

  0
LINE
  5
6B7
330
2CF
100
AcDbEntity
  8
AM_5
 62
     3
100
AcDbLine
 10
69.33610640691961
 20
265.1152098520435
 30
0.0
 11
40.83616744207964
 21
265.1152098520435
 31
0.0
  0
LINE
  5
6B8
330
2CF
100
AcDbEntity
  8
AM_5
 62
     3
100
AcDbLine
 10
69.33610640691961
 20
223.1151793344735
 30
0.0
 11
40.83616744207964
 21
223.1151793344735
 31
0.0
  0
LINE
  5
6B9
330
2CF
100
AcDbEntity
  8
AM_5
 62
     3
100
AcDbLine
 10
41.33616744207965
 20
261.6152098520434
 30
0.0
 11
41.33616744207964
 21
226.6151793344735
 31
0.0
  0
SOLID
  5
6BA
330
2CF
100
AcDbEntity
  8
AM_5
 62
     3
100
AcDbTrace
 10
40.75283410874631
 20
261.6152098520434
 30
0.0
 11
41.91950077541299
 21
261.6152098520434
 31
0.0
 12
41.33616744207965
 22
265.1152098520435
 32
0.0
 13
41.33616744207965
 23
265.1152098520435
 33
0.0
  0
SOLID
  5
6BB
330
2CF
100
AcDbEntity
  8
AM_5
 62
     3
100
AcDbTrace
 10
40.7528341087463
 20
226.6151793344735
 30
0.0
 11
41.91950077541298
 21
226.6151793344735
 31
0.0
 12
41.33616744207964
 22
223.1151793344735
 32
0.0
 13
41.33616744207964
 23
223.1151793344735
 33
0.0
  0
MTEXT
  5
6BC
330
2CF
100
AcDbEntity
  8
AM_5
 62
     2
100
AcDbMText
 10
38.55190348268875
 20
244.1151945932585
 30
0.0
 40
3.5
 41
0.0
 71
     5
 72
     1
  1
φ42
 11
0.0000000000000001
 21
1.0
 31
0.0
 73
     1
 44
1.0
1001
ACAD
1000
MTEXTBEGIN
1070
    73
1070
     1
1070
    44
1040
1.0
1070
    74
1070
     0
1000
MTEXTEND
  0
POINT
  5
6BD
330
2CF
100
AcDbEntity
  8
Defpoints
 62
     0
100
AcDbPoint
 10
69.83610640691961
 20
265.1152098520435
 30
0.0
  0
POINT
  5
6BE
330
2CF
100
AcDbEntity
  8
Defpoints
 62
     0
100
AcDbPoint
 10
69.83610640691961
 20
223.1151793344735
 30
0.0
  0
POINT
  5
6BF
330
2CF
100
AcDbEntity
  8
Defpoints
 62
     0
100
AcDbPoint
 10
41.33616744207964
 20
223.1151793344735
 30
0.0
  0
ENDBLK
  5
2DA
330
2CF
100
AcDbEntity
  8
0
100
AcDbBlockEnd
  0
BLOCK
  5
2E5
330
2DB
100
AcDbEntity
  8
0
100
AcDbBlockBegin
  2
*D15
 70
     1
 10
0.0
 20
0.0
 30
0.0
  3
*D15
  1

  0
LINE
  5
6C0
330
2DB
100
AcDbEntity
  8
AM_5
 62
     3
100
AcDbLine
 10
154.9342051618095
 20
276.6151945932635
 30
0.0
 11
32.83616744207965
 21
276.6151945932636
 31
0.0
  0
LINE
  5
6C1
330
2DB
100
AcDbEntity
  8
AM_5
 62
     3
100
AcDbLine
 10
154.9342051618095
 20
211.6151640756835
 30
0.0
 11
32.83616744207964
 21
211.6151640756835
 31
0.0
  0
LINE
  5
6C2
330
2DB
100
AcDbEntity
  8
AM_5
 62
     3
100
AcDbLine
 10
33.33616744207966
 20
273.1151945932635
 30
0.0
 11
33.33616744207964
 21
215.1151640756835
 31
0.0
  0
SOLID
  5
6C3
330
2DB
100
AcDbEntity
  8
AM_5
 62
     3
100
AcDbTrace
 10
32.75283410874632
 20
273.1151945932635
 30
0.0
 11
33.91950077541299
 21
273.1151945932635
 31
0.0
 12
33.33616744207966
 22
276.6151945932636
 32
0.0
 13
33.33616744207966
 23
276.6151945932636
 33
0.0
  0
SOLID
  5
6C4
330
2DB
100
AcDbEntity
  8
AM_5
 62
     3
100
AcDbTrace
 10
32.75283410874631
 20
215.1151640756835
 30
0.0
 11
33.91950077541298
 21
215.1151640756835
 31
0.0
 12
33.33616744207964
 22
211.6151640756835
 32
0.0
 13
33.33616744207964
 23
211.6151640756835
 33
0.0
  0
MTEXT
  5
6C5
330
2DB
100
AcDbEntity
  8
AM_5
 62
     2
100
AcDbMText
 10
30.55190348268875
 20
244.1151793344735
 30
0.0
 40
3.5
 41
0.0
 71
     5
 72
     1
  1
φ65
 11
0.0000000000000001
 21
1.0
 31
0.0
 73
     1
 44
1.0
1001
ACAD
1000
MTEXTBEGIN
1070
    73
1070
     1
1070
    44
1040
1.0
1070
    74
1070
     0
1000
MTEXTEND
  0
POINT
  5
6C6
330
2DB
100
AcDbEntity
  8
Defpoints
 62
     0
100
AcDbPoint
 10
155.4342051618096
 20
276.6151945932635
 30
0.0
  0
POINT
  5
6C7
330
2DB
100
AcDbEntity
  8
Defpoints
 62
     0
100
AcDbPoint
 10
155.4342051618096
 20
211.6151640756835
 30
0.0
  0
POINT
  5
6C8
330
2DB
100
AcDbEntity
  8
Defpoints
 62
     0
100
AcDbPoint
 10
33.33616744207964
 20
211.6151640756835
 30
0.0
  0
ENDBLK
  5
2E6
330
2DB
100
AcDbEntity
  8
0
100
AcDbBlockEnd
  0
BLOCK
  5
2F1
330
2E7
100
AcDbEntity
  8
0
100
AcDbBlockBegin
  2
*D16
 70
     1
 10
0.0
 20
0.0
 30
0.0
  3
*D16
  1

  0
LINE
  5
6C9
330
2E7
100
AcDbEntity
  8
AM_5
 62
     3
100
AcDbLine
 10
226.3361216657096
 20
271.6152098520435
 30
0.0
 11
244.8791972272397
 21
271.6152098520435
 31
0.0
  0
LINE
  5
6CA
330
2E7
100
AcDbEntity
  8
AM_5
 62
     3
100
AcDbLine
 10
226.3361216657096
 20
216.6151945932635
 30
0.0
 11
244.8791972272397
 21
216.6151945932635
 31
0.0
  0
LINE
  5
6CB
330
2E7
100
AcDbEntity
  8
AM_5
 62
     3
100
AcDbLine
 10
244.3791972272397
 20
268.1152098520434
 30
0.0
 11
244.3791972272397
 21
220.1151945932635
 31
0.0
  0
SOLID
  5
6CC
330
2E7
100
AcDbEntity
  8
AM_5
 62
     3
100
AcDbTrace
 10
243.7958638939064
 20
268.1152098520434
 30
0.0
 11
244.9625305605731
 21
268.1152098520434
 31
0.0
 12
244.3791972272397
 22
271.6152098520435
 32
0.0
 13
244.3791972272397
 23
271.6152098520435
 33
0.0
  0
SOLID
  5
6CD
330
2E7
100
AcDbEntity
  8
AM_5
 62
     3
100
AcDbTrace
 10
243.7958638939064
 20
220.1151945932635
 30
0.0
 11
244.9625305605731
 21
220.1151945932635
 31
0.0
 12
244.3791972272397
 22
216.6151945932635
 32
0.0
 13
244.3791972272397
 23
216.6151945932635
 33
0.0
  0
MTEXT
  5
6CE
330
2E7
100
AcDbEntity
  8
AM_5
 62
     2
100
AcDbMText
 10
241.5949332678488
 20
244.1152022226535
 30
0.0
 40
3.5
 41
0.0
 71
     5
 72
     1
  1
φ55
 11
0.0000000000000001
 21
1.0
 31
0.0
 73
     1
 44
1.0
1001
ACAD
1000
MTEXTBEGIN
1070
    73
1070
     1
1070
    44
1040
1.0
1070
    74
1070
     0
1000
MTEXTEND
  0
POINT
  5
6CF
330
2E7
100
AcDbEntity
  8
Defpoints
 62
     0
100
AcDbPoint
 10
225.8361216657096
 20
271.6152098520435
 30
0.0
  0
POINT
  5
6D0
330
2E7
100
AcDbEntity
  8
Defpoints
 62
     0
100
AcDbPoint
 10
225.8361216657096
 20
216.6151945932635
 30
0.0
  0
POINT
  5
6D1
330
2E7
100
AcDbEntity
  8
Defpoints
 62
     0
100
AcDbPoint
 10
244.3791972272397
 20
216.6151945932635
 30
0.0
  0
ENDBLK
  5
2F2
330
2E7
100
AcDbEntity
  8
0
100
AcDbBlockEnd
  0
BLOCK
  5
2FD
330
2F3
100
AcDbEntity
  8
0
100
AcDbBlockBegin
  2
*D17
 70
     1
 10
0.0
 20
0.0
 30
0.0
  3
*D17
  1

  0
LINE
  5
6D2
330
2F3
100
AcDbEntity
  8
AM_5
 62
     3
100
AcDbLine
 10
183.0059367291896
 20
214.1151640756835
 30
0.0
 11
252.8791972272397
 21
214.1151640756834
 31
0.0
  0
LINE
  5
6D3
330
2F3
100
AcDbEntity
  8
AM_5
 62
     3
100
AcDbLine
 10
183.0059367291896
 20
274.1151945932635
 30
0.0
 11
252.8791972272397
 21
274.1151945932635
 31
0.0
  0
LINE
  5
6D4
330
2F3
100
AcDbEntity
  8
AM_5
 62
     3
100
AcDbLine
 10
252.3791972272397
 20
217.6151640756835
 30
0.0
 11
252.3791972272397
 21
270.6151945932635
 31
0.0
  0
SOLID
  5
6D5
330
2F3
100
AcDbEntity
  8
AM_5
 62
     3
100
AcDbTrace
 10
251.7958638939064
 20
217.6151640756835
 30
0.0
 11
252.9625305605731
 21
217.6151640756835
 31
0.0
 12
252.3791972272397
 22
214.1151640756834
 32
0.0
 13
252.3791972272397
 23
214.1151640756834
 33
0.0
  0
SOLID
  5
6D6
330
2F3
100
AcDbEntity
  8
AM_5
 62
     3
100
AcDbTrace
 10
251.7958638939064
 20
270.6151945932635
 30
0.0
 11
252.9625305605731
 21
270.6151945932635
 31
0.0
 12
252.3791972272397
 22
274.1151945932635
 32
0.0
 13
252.3791972272397
 23
274.1151945932635
 33
0.0
  0
MTEXT
  5
6D7
330
2F3
100
AcDbEntity
  8
AM_5
 62
     2
100
AcDbMText
 10
249.5949332678488
 20
244.1151793344735
 30
0.0
 40
3.5
 41
0.0
 71
     5
 72
     1
  1
φ60
 11
0.0000000000000001
 21
1.0
 31
0.0
 73
     1
 44
1.0
1001
ACAD
1000
MTEXTBEGIN
1070
    73
1070
     1
1070
    44
1040
1.0
1070
    74
1070
     0
1000
MTEXTEND
  0
POINT
  5
6D8
330
2F3
100
AcDbEntity
  8
Defpoints
 62
     0
100
AcDbPoint
 10
182.5059367291896
 20
214.1151640756835
 30
0.0
  0
POINT
  5
6D9
330
2F3
100
AcDbEntity
  8
Defpoints
 62
     0
100
AcDbPoint
 10
182.5059367291896
 20
274.1151945932635
 30
0.0
  0
POINT
  5
6DA
330
2F3
100
AcDbEntity
  8
Defpoints
 62
     0
100
AcDbPoint
 10
252.3791972272397
 20
274.1151945932635
 30
0.0
  0
ENDBLK
  5
2FE
330
2F3
100
AcDbEntity
  8
0
100
AcDbBlockEnd
  0
BLOCK
  5
309
330
2FF
100
AcDbEntity
  8
0
100
AcDbBlockBegin
  2
*D18
 70
     1
 10
0.0
 20
0.0
 30
0.0
  3
*D18
  1

  0
LINE
  5
6DB
330
2FF
100
AcDbEntity
  8
AM_5
 62
     3
100
AcDbLine
 10
68.83613692449967
 20
223.6151793344735
 30
0.0
 11
68.83613692449967
 21
195.7190154329395
 31
0.0
  0
LINE
  5
6DC
330
2FF
100
AcDbEntity
  8
AM_5
 62
     3
100
AcDbLine
 10
117.8361064069196
 20
220.1303923471635
 30
0.0
 11
117.8361064069196
 21
195.7190154329395
 31
0.0
  0
LINE
  5
6DD
330
2FF
100
AcDbEntity
  8
AM_5
 62
     3
100
AcDbLine
 10
72.33613692449967
 20
196.2190154329395
 30
0.0
 11
114.3361064069196
 21
196.2190154329395
 31
0.0
  0
SOLID
  5
6DE
330
2FF
100
AcDbEntity
  8
AM_5
 62
     3
100
AcDbTrace
 10
72.33613692449967
 20
196.8023487662728
 30
0.0
 11
72.33613692449967
 21
195.6356820996061
 31
0.0
 12
68.83613692449967
 22
196.2190154329395
 32
0.0
 13
68.83613692449967
 23
196.2190154329395
 33
0.0
  0
SOLID
  5
6DF
330
2FF
100
AcDbEntity
  8
AM_5
 62
     3
100
AcDbTrace
 10
114.3361064069196
 20
196.8023487662728
 30
0.0
 11
114.3361064069196
 21
195.6356820996061
 31
0.0
 12
117.8361064069196
 22
196.2190154329395
 32
0.0
 13
117.8361064069196
 23
196.2190154329395
 33
0.0
  0
MTEXT
  5
6E0
330
2FF
100
AcDbEntity
  8
AM_5
 62
     2
100
AcDbMText
 10
87.74904369520777
 20
198.7190154329395
 30
0.0
 40
3.5
 41
0.0
 71
     5
 72
     1
  1
49
 73
     1
 44
1.0
1001
ACAD
1000
MTEXTBEGIN
1070
    73
1070
     1
1070
    44
1040
1.0
1070
    74
1070
     0
1000
MTEXTEND
  0
POINT
  5
6E1
330
2FF
100
AcDbEntity
  8
Defpoints
 62
     0
100
AcDbPoint
 10
68.83613692449967
 20
224.1151793344735
 30
0.0
  0
POINT
  5
6E2
330
2FF
100
AcDbEntity
  8
Defpoints
 62
     0
100
AcDbPoint
 10
117.8361064069196
 20
220.6303923471635
 30
0.0
  0
POINT
  5
6E3
330
2FF
100
AcDbEntity
  8
Defpoints
 62
     0
100
AcDbPoint
 10
117.8361064069196
 20
196.2190154329395
 30
0.0
  0
ENDBLK
  5
30A
330
2FF
100
AcDbEntity
  8
0
100
AcDbBlockEnd
  0
BLOCK
  5
315
330
30B
100
AcDbEntity
  8
0
100
AcDbBlockBegin
  2
*D19
 70
     1
 10
0.0
 20
0.0
 30
0.0
  3
*D19
  1

  0
LINE
  5
6E4
330
30B
100
AcDbEntity
  8
AM_5
 62
     3
100
AcDbLine
 10
68.83610640691961
 20
223.6151793344735
 30
0.0
 11
68.83610640691961
 21
187.3651945932637
 31
0.0
  0
LINE
  5
6E5
330
30B
100
AcDbEntity
  8
AM_5
 62
     3
100
AcDbLine
 10
178.8361216657096
 20
213.9914250116507
 30
0.0
 11
178.8361216657096
 21
187.3651945932637
 31
0.0
  0
LINE
  5
6E6
330
30B
100
AcDbEntity
  8
AM_5
 62
     3
100
AcDbLine
 10
72.33610640691961
 20
187.8651945932637
 30
0.0
 11
175.3361216657095
 21
187.8651945932637
 31
0.0
  0
SOLID
  5
6E7
330
30B
100
AcDbEntity
  8
AM_5
 62
     3
100
AcDbTrace
 10
72.33610640691961
 20
188.448527926597
 30
0.0
 11
72.33610640691961
 21
187.2818612599303
 31
0.0
 12
68.83610640691961
 22
187.8651945932637
 32
0.0
 13
68.83610640691961
 23
187.8651945932637
 33
0.0
  0
SOLID
  5
6E8
330
30B
100
AcDbEntity
  8
AM_5
 62
     3
100
AcDbTrace
 10
175.3361216657095
 20
188.448527926597
 30
0.0
 11
175.3361216657095
 21
187.2818612599303
 31
0.0
 12
178.8361216657096
 22
187.8651945932637
 32
0.0
 13
178.8361216657096
 23
187.8651945932637
 33
0.0
  0
MTEXT
  5
6E9
330
30B
100
AcDbEntity
  8
AM_5
 62
     2
100
AcDbMText
 10
123.8361140363146
 20
190.3651945932637
 30
0.0
 40
3.5
 41
0.0
 71
     5
 72
     1
  1
110
 73
     1
 44
1.0
1001
ACAD
1000
MTEXTBEGIN
1070
    73
1070
     1
1070
    44
1040
1.0
1070
    74
1070
     0
1000
MTEXTEND
  0
POINT
  5
6EA
330
30B
100
AcDbEntity
  8
Defpoints
 62
     0
100
AcDbPoint
 10
68.83610640691961
 20
224.1151793344735
 30
0.0
  0
POINT
  5
6EB
330
30B
100
AcDbEntity
  8
Defpoints
 62
     0
100
AcDbPoint
 10
178.8361216657096
 20
214.4914250116507
 30
0.0
  0
POINT
  5
6EC
330
30B
100
AcDbEntity
  8
Defpoints
 62
     0
100
AcDbPoint
 10
178.8361216657096
 20
187.8651945932637
 30
0.0
  0
ENDBLK
  5
316
330
30B
100
AcDbEntity
  8
0
100
AcDbBlockEnd
  0
BLOCK
  5
323
330
317
100
AcDbEntity
  8
0
100
AcDbBlockBegin
  2
*D20
 70
     1
 10
0.0
 20
0.0
 30
0.0
  3
*D20
  1

  0
LINE
  5
6ED
330
317
100
AcDbEntity
  8
AM_5
 62
     3
100
AcDbLine
 10
178.8361216657096
 20
213.6151945932635
 30
0.0
 11
178.8361216657096
 21
187.3651945932637
 31
0.0
  0
LINE
  5
6EE
330
317
100
AcDbEntity
  8
AM_5
 62
     3
100
AcDbLine
 10
186.8361216657096
 20
221.1151945932635
 30
0.0
 11
186.8361216657096
 21
187.3651945932637
 31
0.0
  0
LINE
  5
6EF
330
317
100
AcDbEntity
  8
AM_5
 62
     3
100
AcDbLine
 10
175.3361216657095
 20
187.8651945932637
 30
0.0
 11
171.8361216657096
 21
187.8651945932637
 31
0.0
  0
LINE
  5
6F0
330
317
100
AcDbEntity
  8
AM_5
 62
     3
100
AcDbLine
 10
190.3361216657096
 20
187.8651945932637
 30
0.0
 11
193.8361216657096
 21
187.8651945932637
 31
0.0
  0
LINE
  5
6F1
330
317
100
AcDbEntity
  8
AM_5
 62
     3
100
AcDbLine
 10
178.8361216657096
 20
187.8651945932637
 30
0.0
 11
186.8361216657096
 21
187.8651945932637
 31
0.0
  0
SOLID
  5
6F2
330
317
100
AcDbEntity
  8
AM_5
 62
     3
100
AcDbTrace
 10
175.3361216657095
 20
188.448527926597
 30
0.0
 11
175.3361216657095
 21
187.2818612599304
 31
0.0
 12
178.8361216657096
 22
187.8651945932637
 32
0.0
 13
178.8361216657096
 23
187.8651945932637
 33
0.0
  0
SOLID
  5
6F3
330
317
100
AcDbEntity
  8
AM_5
 62
     3
100
AcDbTrace
 10
190.3361216657096
 20
188.448527926597
 30
0.0
 11
190.3361216657096
 21
187.2818612599304
 31
0.0
 12
186.8361216657096
 22
187.8651945932637
 32
0.0
 13
186.8361216657096
 23
187.8651945932637
 33
0.0
  0
MTEXT
  5
6F4
330
317
100
AcDbEntity
  8
AM_5
 62
     2
100
AcDbMText
 10
182.8361216657096
 20
190.3651945932637
 30
0.0
 40
3.5
 41
0.0
 71
     5
 72
     1
  1
8
 73
     1
 44
1.0
1001
ACAD
1000
MTEXTBEGIN
1070
    73
1070
     1
1070
    44
1040
1.0
1070
    74
1070
     0
1000
MTEXTEND
  0
POINT
  5
6F5
330
317
100
AcDbEntity
  8
Defpoints
 62
     0
100
AcDbPoint
 10
178.8361216657096
 20
214.1151945932635
 30
0.0
  0
POINT
  5
6F6
330
317
100
AcDbEntity
  8
Defpoints
 62
     0
100
AcDbPoint
 10
186.8361216657096
 20
221.6151945932635
 30
0.0
  0
POINT
  5
6F7
330
317
100
AcDbEntity
  8
Defpoints
 62
     0
100
AcDbPoint
 10
186.8361216657096
 20
187.8651945932637
 30
0.0
  0
ENDBLK
  5
324
330
317
100
AcDbEntity
  8
0
100
AcDbBlockEnd
  0
BLOCK
  5
32F
330
325
100
AcDbEntity
  8
0
100
AcDbBlockBegin
  2
*D21
 70
     1
 10
0.0
 20
0.0
 30
0.0
  3
*D21
  1

  0
LINE
  5
6F8
330
325
100
AcDbEntity
  8
AM_5
 62
     3
100
AcDbLine
 10
68.83613692449967
 20
223.6151793344735
 30
0.0
 11
68.83613692449967
 21
179.3651945932637
 31
0.0
  0
LINE
  5
6F9
330
325
100
AcDbEntity
  8
AM_5
 62
     3
100
AcDbLine
 10
227.8361216657096
 20
218.1151945932635
 30
0.0
 11
227.8361216657096
 21
179.3651945932637
 31
0.0
  0
LINE
  5
6FA
330
325
100
AcDbEntity
  8
AM_5
 62
     3
100
AcDbLine
 10
72.33613692449967
 20
179.8651945932637
 30
0.0
 11
224.3361216657096
 21
179.8651945932637
 31
0.0
  0
SOLID
  5
6FB
330
325
100
AcDbEntity
  8
AM_5
 62
     3
100
AcDbTrace
 10
72.33613692449967
 20
180.448527926597
 30
0.0
 11
72.33613692449967
 21
179.2818612599304
 31
0.0
 12
68.83613692449967
 22
179.8651945932637
 32
0.0
 13
68.83613692449967
 23
179.8651945932637
 33
0.0
  0
SOLID
  5
6FC
330
325
100
AcDbEntity
  8
AM_5
 62
     3
100
AcDbTrace
 10
224.3361216657096
 20
180.448527926597
 30
0.0
 11
224.3361216657096
 21
179.2818612599304
 31
0.0
 12
227.8361216657096
 22
179.8651945932637
 32
0.0
 13
227.8361216657096
 23
179.8651945932637
 33
0.0
  0
MTEXT
  5
6FD
330
325
100
AcDbEntity
  8
AM_5
 62
     2
100
AcDbMText
 10
148.3361292951046
 20
182.3651945932637
 30
0.0
 40
3.5
 41
0.0
 71
     5
 72
     1
  1
MAX.159
 73
     1
 44
1.0
1001
ACAD
1000
MTEXTBEGIN
1070
    73
1070
     1
1070
    44
1040
1.0
1070
    74
1070
     0
1000
MTEXTEND
  0
POINT
  5
6FE
330
325
100
AcDbEntity
  8
Defpoints
 62
     0
100
AcDbPoint
 10
68.83613692449967
 20
224.1151793344735
 30
0.0
  0
POINT
  5
6FF
330
325
100
AcDbEntity
  8
Defpoints
 62
     0
100
AcDbPoint
 10
227.8361216657096
 20
218.6151945932635
 30
0.0
  0
POINT
  5
700
330
325
100
AcDbEntity
  8
Defpoints
 62
     0
100
AcDbPoint
 10
227.8361216657096
 20
179.8651945932637
 30
0.0
  0
ENDBLK
  5
330
330
325
100
AcDbEntity
  8
0
100
AcDbBlockEnd
  0
BLOCK
  5
33B
330
331
100
AcDbEntity
  8
0
100
AcDbBlockBegin
  2
*D22
 70
     1
 10
0.0
 20
0.0
 30
0.0
  3
*D22
  1

  0
LINE
  5
701
330
331
100
AcDbEntity
  8
AM_5
 62
     3
100
AcDbLine
 10
140.8361064069196
 20
267.1152098520435
 30
0.0
 11
140.8361064069196
 21
292.1151945932635
 31
0.0
  0
LINE
  5
702
330
331
100
AcDbEntity
  8
AM_5
 62
     3
100
AcDbLine
 10
178.8361216657096
 20
274.6151945932635
 30
0.0
 11
178.8361216657096
 21
292.1151945932635
 31
0.0
  0
LINE
  5
703
330
331
100
AcDbEntity
  8
AM_5
 62
     3
100
AcDbLine
 10
144.3361064069196
 20
291.6151945932634
 30
0.0
 11
175.3361216657095
 21
291.6151945932634
 31
0.0
  0
SOLID
  5
704
330
331
100
AcDbEntity
  8
AM_5
 62
     3
100
AcDbTrace
 10
144.3361064069196
 20
292.1985279265967
 30
0.0
 11
144.3361064069196
 21
291.0318612599301
 31
0.0
 12
140.8361064069196
 22
291.6151945932634
 32
0.0
 13
140.8361064069196
 23
291.6151945932634
 33
0.0
  0
SOLID
  5
705
330
331
100
AcDbEntity
  8
AM_5
 62
     3
100
AcDbTrace
 10
175.3361216657095
 20
292.1985279265967
 30
0.0
 11
175.3361216657095
 21
291.0318612599301
 31
0.0
 12
178.8361216657096
 22
291.6151945932634
 32
0.0
 13
178.8361216657096
 23
291.6151945932634
 33
0.0
  0
MTEXT
  5
706
330
331
100
AcDbEntity
  8
AM_5
 62
     2
100
AcDbMText
 10
159.8361140363146
 20
294.1151945932634
 30
0.0
 40
3.5
 41
0.0
 71
     5
 72
     1
  1
38
 73
     1
 44
1.0
1001
ACAD
1000
MTEXTBEGIN
1070
    73
1070
     1
1070
    44
1040
1.0
1070
    74
1070
     0
1000
MTEXTEND
  0
POINT
  5
707
330
331
100
AcDbEntity
  8
Defpoints
 62
     0
100
AcDbPoint
 10
140.8361064069196
 20
266.6152098520434
 30
0.0
  0
POINT
  5
708
330
331
100
AcDbEntity
  8
Defpoints
 62
     0
100
AcDbPoint
 10
178.8361216657096
 20
274.1151945932635
 30
0.0
  0
POINT
  5
709
330
331
100
AcDbEntity
  8
Defpoints
 62
     0
100
AcDbPoint
 10
178.8361216657096
 20
291.6151945932634
 30
0.0
  0
ENDBLK
  5
33C
330
331
100
AcDbEntity
  8
0
100
AcDbBlockEnd
  0
BLOCK
  5
347
330
33D
100
AcDbEntity
  8
0
100
AcDbBlockBegin
  2
*D23
 70
     1
 10
0.0
 20
0.0
 30
0.0
  3
*D23
  1

  0
LINE
  5
70A
330
33D
100
AcDbEntity
  8
AM_5
 62
     3
100
AcDbLine
 10
152.8361369244996
 20
215.6151488168935
 30
0.0
 11
152.8361369244996
 21
195.3651945932637
 31
0.0
  0
LINE
  5
70B
330
33D
100
AcDbEntity
  8
AM_5
 62
     3
100
AcDbLine
 10
162.8361216657095
 20
211.3651945932635
 30
0.0
 11
162.8361216657095
 21
195.3651945932637
 31
0.0
  0
LINE
  5
70C
330
33D
100
AcDbEntity
  8
AM_5
 62
     3
100
AcDbLine
 10
156.3361369244996
 20
195.8651945932637
 30
0.0
 11
159.3361216657096
 21
195.8651945932637
 31
0.0
  0
SOLID
  5
70D
330
33D
100
AcDbEntity
  8
AM_5
 62
     3
100
AcDbTrace
 10
156.3361369244996
 20
196.448527926597
 30
0.0
 11
156.3361369244996
 21
195.2818612599303
 31
0.0
 12
152.8361369244996
 22
195.8651945932637
 32
0.0
 13
152.8361369244996
 23
195.8651945932637
 33
0.0
  0
SOLID
  5
70E
330
33D
100
AcDbEntity
  8
AM_5
 62
     3
100
AcDbTrace
 10
159.3361216657096
 20
196.448527926597
 30
0.0
 11
159.3361216657096
 21
195.2818612599303
 31
0.0
 12
162.8361216657095
 22
195.8651945932637
 32
0.0
 13
162.8361216657095
 23
195.8651945932637
 33
0.0
  0
MTEXT
  5
70F
330
33D
100
AcDbEntity
  8
AM_5
 62
     2
100
AcDbMText
 10
157.8361292951046
 20
198.3651945932637
 30
0.0
 40
3.5
 41
0.0
 71
     5
 72
     1
  1
10
 73
     1
 44
1.0
1001
ACAD
1000
MTEXTBEGIN
1070
    73
1070
     1
1070
    44
1040
1.0
1070
    74
1070
     0
1000
MTEXTEND
  0
POINT
  5
710
330
33D
100
AcDbEntity
  8
Defpoints
 62
     0
100
AcDbPoint
 10
152.8361369244996
 20
216.1151488168935
 30
0.0
  0
POINT
  5
711
330
33D
100
AcDbEntity
  8
Defpoints
 62
     0
100
AcDbPoint
 10
162.8361216657095
 20
211.8651945932635
 30
0.0
  0
POINT
  5
712
330
33D
100
AcDbEntity
  8
Defpoints
 62
     0
100
AcDbPoint
 10
162.8361216657095
 20
195.8651945932637
 30
0.0
  0
ENDBLK
  5
348
330
33D
100
AcDbEntity
  8
0
100
AcDbBlockEnd
  0
BLOCK
  5
356
330
355
100
AcDbEntity
  8
0
100
AcDbBlockBegin
  2
SYMTB014-001
 70
     0
 10
0.0
 20
0.0
 30
0.0
  3
SYMTB014-001
  1

  0
LINE
  5
357
330
355
100
AcDbEntity
  8
0
  6
Continuous
 62
     7
 48
0.5
100
AcDbLine
 10
-2.5
 20
-1.4433754682541
 30
0.0
 11
2.5
 21
-1.4433754682541
 31
0.0
  0
LINE
  5
358
330
355
100
AcDbEntity
  8
0
  6
Continuous
 62
     7
 48
0.5
100
AcDbLine
 10
-2.5
 20
-1.4433754682541
 30
0.0
 11
0.000000142263
 21
2.886751413345299
 31
0.0
  0
LINE
  5
359
330
355
100
AcDbEntity
  8
0
  6
Continuous
 62
     7
 48
0.5
100
AcDbLine
 10
0.0000003898993
 20
2.886751413345299
 30
0.0
 11
2.5000007152557
 21
-1.4433754682541
 31
0.0
  0
LINE
  5
35A
330
355
100
AcDbEntity
  8
0
  6
Continuous
 62
     7
 48
0.5
100
AcDbLine
 10
-2.5
 20
-1.4433754682541
 30
0.0
 11
2.5
 21
-1.4433754682541
 31
0.0
  0
MTEXT
  5
35B
330
355
100
AcDbEntity
  8
0
 62
     2
100
AcDbMText
 10
-0.6585630178451751
 20
0.479100883007
 30
0.0
 40
2.799999999999999
 41
0.0
 71
     4
 72
     5
  1
\T1.40;\W0.61;１
 73
     1
 44
1.0
1001
ACAD
1000
MTEXTBEGIN
1070
    73
1070
     1
1070
    44
1040
1.0
1070
    74
1070
     0
1000
MTEXTEND
  0
ENDBLK
  5
35C
330
355
100
AcDbEntity
  8
0
100
AcDbBlockEnd
  0
BLOCK
  5
35E
330
35D
100
AcDbEntity
  8
0
100
AcDbBlockBegin
  2
*D25
 70
     1
 10
0.0
 20
0.0
 30
0.0
  3
*D25
  1

  0
LINE
  5
35F
330
35D
100
AcDbEntity
  8
PV0001_1
100
AcDbLine
 10
-212.50419616699
 20
164.79019165039
 30
0.0
 11
-212.50419616699
 21
138.54019165039
 31
0.0
  0
LINE
  5
360
330
35D
100
AcDbEntity
  8
PV0001_1
100
AcDbLine
 10
-204.50419616699
 20
172.29019165039
 30
0.0
 11
-204.50419616699
 21
138.54019165039
 31
0.0
  0
LINE
  5
361
330
35D
100
AcDbEntity
  8
PV0001_1
100
AcDbLine
 10
-210.00419616699
 20
139.54019165039
 30
0.0
 11
-207.00419616699
 21
139.54019165039
 31
0.0
  0
INSERT
  5
362
330
35D
100
AcDbEntity
  8
PV0001_1
100
AcDbBlockReference
  2
_Open
 10
-212.50419616699
 20
139.54019165039
 30
0.0
 41
2.5
 42
2.5
 43
2.5
 50
180.0
  0
INSERT
  5
363
330
35D
100
AcDbEntity
  8
PV0001_1
100
AcDbBlockReference
  2
_Open
 10
-204.50419616699
 20
139.54019165039
 30
0.0
 41
2.5
 42
2.5
 43
2.5
  0
MTEXT
  5
364
330
35D
100
AcDbEntity
  8
PV0001_1
 62
     2
100
AcDbMText
 10
-208.50419616699
 20
142.64019165039
 30
0.0
 40
3.2
 41
0.0
 71
     5
 72
     1
  1
8
 73
     1
 44
1.0
1001
ACAD
1000
MTEXTBEGIN
1070
    73
1070
     1
1070
    44
1040
1.0
1070
    74
1070
     0
1000
MTEXTEND
  0
POINT
  5
365
330
35D
100
AcDbEntity
  8
Defpoints
 62
     0
100
AcDbPoint
 10
-212.50419616699
 20
165.79019165039
 30
0.0
  0
POINT
  5
366
330
35D
100
AcDbEntity
  8
Defpoints
 62
     0
100
AcDbPoint
 10
-204.50419616699
 20
173.29019165039
 30
0.0
  0
POINT
  5
367
330
35D
100
AcDbEntity
  8
Defpoints
 62
     0
100
AcDbPoint
 10
-204.50419616699
 20
139.54019165039
 30
0.0
  0
ENDBLK
  5
368
330
35D
100
AcDbEntity
  8
0
100
AcDbBlockEnd
  0
BLOCK
  5
36A
330
369
100
AcDbEntity
  8
0
100
AcDbBlockBegin
  2
_Open
 70
     0
 10
0.0
 20
0.0
 30
0.0
  3
_Open
  1

  0
LINE
  5
36B
330
369
100
AcDbEntity
  8
0
  6
ByBlock
 62
     0
370
    -2
100
AcDbLine
 10
-1.0
 20
0.1666666666666666
 30
0.0
 11
0.0
 21
0.0
 31
0.0
  0
LINE
  5
36C
330
369
100
AcDbEntity
  8
0
  6
ByBlock
 62
     0
370
    -2
100
AcDbLine
 10
-1.0
 20
-0.1666666666666666
 30
0.0
 11
0.0
 21
0.0
 31
0.0
  0
LINE
  5
36D
330
369
100
AcDbEntity
  8
0
  6
ByBlock
 62
     0
370
    -2
100
AcDbLine
 10
0.0
 20
0.0
 30
0.0
 11
-1.0
 21
0.0
 31
0.0
  0
ENDBLK
  5
36E
330
369
100
AcDbEntity
  8
0
100
AcDbBlockEnd
  0
BLOCK
  5
370
330
36F
100
AcDbEntity
  8
0
100
AcDbBlockBegin
  2
*D27
 70
     1
 10
0.0
 20
0.0
 30
0.0
  3
*D27
  1

  0
LINE
  5
371
330
36F
100
AcDbEntity
  8
PV0001_1
100
AcDbLine
 10
-322.50421142578
 20
216.79020690917
 30
0.0
 11
-351.00415039062
 21
216.79020690917
 31
0.0
  0
LINE
  5
372
330
36F
100
AcDbEntity
  8
PV0001_1
100
AcDbLine
 10
-322.50421142578
 20
174.7901763916
 30
0.0
 11
-351.00415039062
 21
174.7901763916
 31
0.0
  0
LINE
  5
373
330
36F
100
AcDbEntity
  8
PV0001_1
100
AcDbLine
 10
-350.0041503906199
 20
214.29020690917
 30
0.0
 11
-350.0041503906199
 21
177.2901763916
 31
0.0
  0
INSERT
  5
374
330
36F
100
AcDbEntity
  8
PV0001_1
100
AcDbBlockReference
  2
_Open
 10
-350.0041503906199
 20
216.79020690917
 30
0.0
 41
2.5
 42
2.5
 43
2.5
 50
90.0
  0
INSERT
  5
375
330
36F
100
AcDbEntity
  8
PV0001_1
100
AcDbBlockReference
  2
_Open
 10
-350.0041503906199
 20
174.7901763916
 30
0.0
 41
2.5
 42
2.5
 43
2.5
 50
270.0
  0
MTEXT
  5
376
330
36F
100
AcDbEntity
  8
PV0001_1
 62
     2
100
AcDbMText
 10
-353.10415039062
 20
195.79019165039
 30
0.0
 40
3.2
 41
0.0
 71
     5
 72
     1
  1
\U+220542
 11
0.0000000000000001
 21
1.0
 31
0.0
 73
     1
 44
1.0
1001
ACAD
1000
MTEXTBEGIN
1070
    73
1070
     1
1070
    44
1040
1.0
1070
    74
1070
     0
1000
MTEXTEND
  0
POINT
  5
377
330
36F
100
AcDbEntity
  8
Defpoints
 62
     0
100
AcDbPoint
 10
-321.50421142578
 20
216.79020690917
 30
0.0
  0
POINT
  5
378
330
36F
100
AcDbEntity
  8
Defpoints
 62
     0
100
AcDbPoint
 10
-321.50421142578
 20
174.7901763916
 30
0.0
  0
POINT
  5
379
330
36F
100
AcDbEntity
  8
Defpoints
 62
     0
100
AcDbPoint
 10
-350.0041503906199
 20
174.7901763916
 30
0.0
  0
ENDBLK
  5
37A
330
36F
100
AcDbEntity
  8
0
100
AcDbBlockEnd
  0
BLOCK
  5
37C
330
37B
100
AcDbEntity
  8
0
100
AcDbBlockBegin
  2
*D28
 70
     1
 10
0.0
 20
0.0
 30
0.0
  3
*D28
  1

  0
LINE
  5
37D
330
37B
100
AcDbEntity
  8
PV0001_1
100
AcDbLine
 10
-162.54730224609
 20
223.29020690917
 30
0.0
 11
-144.0042266845699
 21
223.29020690917
 31
0.0
  0
LINE
  5
37E
330
37B
100
AcDbEntity
  8
PV0001_1
100
AcDbLine
 10
-162.54730224609
 20
168.29019165039
 30
0.0
 11
-144.00422668457
 21
168.29019165039
 31
0.0
  0
LINE
  5
37F
330
37B
100
AcDbEntity
  8
PV0001_1
100
AcDbLine
 10
-145.0042266845699
 20
220.79020690917
 30
0.0
 11
-145.00422668457
 21
170.79019165039
 31
0.0
  0
INSERT
  5
380
330
37B
100
AcDbEntity
  8
PV0001_1
100
AcDbBlockReference
  2
_Open
 10
-145.0042266845699
 20
223.29020690917
 30
0.0
 41
2.5
 42
2.5
 43
2.5
 50
90.0
  0
INSERT
  5
381
330
37B
100
AcDbEntity
  8
PV0001_1
100
AcDbBlockReference
  2
_Open
 10
-145.00422668457
 20
168.29019165039
 30
0.0
 41
2.5
 42
2.5
 43
2.5
 50
270.0
  0
MTEXT
  5
382
330
37B
100
AcDbEntity
  8
PV0001_1
 62
     2
100
AcDbMText
 10
-148.10422668457
 20
195.79019165039
 30
0.0
 40
3.2
 41
0.0
 71
     5
 72
     1
  1
\U+220555
 11
0.0000000000000001
 21
1.0
 31
0.0
 73
     1
 44
1.0
1001
ACAD
1000
MTEXTBEGIN
1070
    73
1070
     1
1070
    44
1040
1.0
1070
    74
1070
     0
1000
MTEXTEND
  0
POINT
  5
383
330
37B
100
AcDbEntity
  8
Defpoints
 62
     0
100
AcDbPoint
 10
-163.54730224609
 20
223.29020690917
 30
0.0
  0
POINT
  5
384
330
37B
100
AcDbEntity
  8
Defpoints
 62
     0
100
AcDbPoint
 10
-163.54730224609
 20
168.29019165039
 30
0.0
  0
POINT
  5
385
330
37B
100
AcDbEntity
  8
Defpoints
 62
     0
100
AcDbPoint
 10
-145.00422668457
 20
168.29019165039
 30
0.0
  0
ENDBLK
  5
386
330
37B
100
AcDbEntity
  8
0
100
AcDbBlockEnd
  0
BLOCK
  5
388
330
387
100
AcDbEntity
  8
0
100
AcDbBlockBegin
  2
*D29
 70
     1
 10
0.0
 20
0.0
 30
0.0
  3
*D29
  1

  0
LINE
  5
389
330
387
100
AcDbEntity
  8
PV0001_1
100
AcDbLine
 10
-207.83430480957
 20
225.79019165039
 30
0.0
 11
-136.0042266845699
 21
225.79019165039
 31
0.0
  0
LINE
  5
38A
330
387
100
AcDbEntity
  8
PV0001_1
100
AcDbLine
 10
-207.83436584472
 20
165.79019165039
 30
0.0
 11
-136.0042266845699
 21
165.7901916503899
 31
0.0
  0
LINE
  5
38B
330
387
100
AcDbEntity
  8
PV0001_1
100
AcDbLine
 10
-137.0042266845699
 20
223.29019165039
 30
0.0
 11
-137.0042266845699
 21
168.2901916503899
 31
0.0
  0
INSERT
  5
38C
330
387
100
AcDbEntity
  8
PV0001_1
100
AcDbBlockReference
  2
_Open
 10
-137.0042266845699
 20
225.79019165039
 30
0.0
 41
2.5
 42
2.5
 43
2.5
 50
90.0
  0
INSERT
  5
38D
330
387
100
AcDbEntity
  8
PV0001_1
100
AcDbBlockReference
  2
_Open
 10
-137.0042266845699
 20
165.7901916503899
 30
0.0
 41
2.5
 42
2.5
 43
2.5
 50
270.0
  0
MTEXT
  5
38E
330
387
100
AcDbEntity
  8
PV0001_1
 62
     2
100
AcDbMText
 10
-140.10422668457
 20
195.79019165039
 30
0.0
 40
3.2
 41
0.0
 71
     5
 72
     1
  1
\U+220560
 11
0.0000000000000001
 21
1.0
 31
0.0
 73
     1
 44
1.0
1001
ACAD
1000
MTEXTBEGIN
1070
    73
1070
     1
1070
    44
1040
1.0
1070
    74
1070
     0
1000
MTEXTEND
  0
POINT
  5
38F
330
387
100
AcDbEntity
  8
Defpoints
 62
     0
100
AcDbPoint
 10
-208.83430480957
 20
225.79019165039
 30
0.0
  0
POINT
  5
390
330
387
100
AcDbEntity
  8
Defpoints
 62
     0
100
AcDbPoint
 10
-208.83436584472
 20
165.79019165039
 30
0.0
  0
POINT
  5
391
330
387
100
AcDbEntity
  8
Defpoints
 62
     0
100
AcDbPoint
 10
-137.0042266845699
 20
165.7901916503899
 30
0.0
  0
ENDBLK
  5
392
330
387
100
AcDbEntity
  8
0
100
AcDbBlockEnd
  0
BLOCK
  5
394
330
393
100
AcDbEntity
  8
0
100
AcDbBlockBegin
  2
*D30
 70
     1
 10
0.0
 20
0.0
 30
0.0
  3
*D30
  1

  0
LINE
  5
395
330
393
100
AcDbEntity
  8
PV0001_1
100
AcDbLine
 10
-236.90611267089
 20
228.29019165039
 30
0.0
 11
-359.00415039062
 21
228.29019165039
 31
0.0
  0
LINE
  5
396
330
393
100
AcDbEntity
  8
PV0001_1
100
AcDbLine
 10
-236.90611267089
 20
163.29019165039
 30
0.0
 11
-359.00415039062
 21
163.29019165039
 31
0.0
  0
LINE
  5
397
330
393
100
AcDbEntity
  8
PV0001_1
100
AcDbLine
 10
-358.0041503906199
 20
225.79019165039
 30
0.0
 11
-358.0041503906199
 21
165.79019165039
 31
0.0
  0
INSERT
  5
398
330
393
100
AcDbEntity
  8
PV0001_1
100
AcDbBlockReference
  2
_Open
 10
-358.0041503906199
 20
228.29019165039
 30
0.0
 41
2.5
 42
2.5
 43
2.5
 50
90.0
  0
INSERT
  5
399
330
393
100
AcDbEntity
  8
PV0001_1
100
AcDbBlockReference
  2
_Open
 10
-358.0041503906199
 20
163.29019165039
 30
0.0
 41
2.5
 42
2.5
 43
2.5
 50
270.0
  0
MTEXT
  5
39A
330
393
100
AcDbEntity
  8
PV0001_1
 62
     2
100
AcDbMText
 10
-361.10415039062
 20
195.79019165039
 30
0.0
 40
3.2
 41
0.0
 71
     5
 72
     1
  1
\U+220565
 11
0.0000000000000001
 21
1.0
 31
0.0
 73
     1
 44
1.0
1001
ACAD
1000
MTEXTBEGIN
1070
    73
1070
     1
1070
    44
1040
1.0
1070
    74
1070
     0
1000
MTEXTEND
  0
POINT
  5
39B
330
393
100
AcDbEntity
  8
Defpoints
 62
     0
100
AcDbPoint
 10
-235.90611267089
 20
228.29019165039
 30
0.0
  0
POINT
  5
39C
330
393
100
AcDbEntity
  8
Defpoints
 62
     0
100
AcDbPoint
 10
-235.90611267089
 20
163.29019165039
 30
0.0
  0
POINT
  5
39D
330
393
100
AcDbEntity
  8
Defpoints
 62
     0
100
AcDbPoint
 10
-358.0041503906199
 20
163.29019165039
 30
0.0
  0
ENDBLK
  5
39E
330
393
100
AcDbEntity
  8
0
100
AcDbBlockEnd
  0
BLOCK
  5
3A0
330
39F
100
AcDbEntity
  8
0
100
AcDbBlockBegin
  2
*D31
 70
     1
 10
0.0
 20
0.0
 30
0.0
  3
*D31
  1

  0
LINE
  5
3A1
330
39F
100
AcDbEntity
  8
PV0001_1
100
AcDbLine
 10
-228.50419616699
 20
162.54019165039
 30
0.0
 11
-228.50419616699
 21
146.54019165039
 31
0.0
  0
LINE
  5
3A2
330
39F
100
AcDbEntity
  8
PV0001_1
100
AcDbLine
 10
-238.50419616699
 20
166.54019165039
 30
0.0
 11
-238.50419616699
 21
146.54019165039
 31
0.0
  0
LINE
  5
3A3
330
39F
100
AcDbEntity
  8
PV0001_1
100
AcDbLine
 10
-231.00419616699
 20
147.54019165039
 30
0.0
 11
-236.00419616699
 21
147.54019165039
 31
0.0
  0
INSERT
  5
3A4
330
39F
100
AcDbEntity
  8
PV0001_1
100
AcDbBlockReference
  2
_Open
 10
-228.50419616699
 20
147.54019165039
 30
0.0
 41
2.5
 42
2.5
 43
2.5
  0
INSERT
  5
3A5
330
39F
100
AcDbEntity
  8
PV0001_1
100
AcDbBlockReference
  2
_Open
 10
-238.50419616699
 20
147.54019165039
 30
0.0
 41
2.5
 42
2.5
 43
2.5
 50
180.0
  0
MTEXT
  5
3A6
330
39F
100
AcDbEntity
  8
PV0001_1
 62
     2
100
AcDbMText
 10
-233.50419616699
 20
150.64019165039
 30
0.0
 40
3.2
 41
0.0
 71
     5
 72
     1
  1
10
 73
     1
 44
1.0
1001
ACAD
1000
MTEXTBEGIN
1070
    73
1070
     1
1070
    44
1040
1.0
1070
    74
1070
     0
1000
MTEXTEND
  0
POINT
  5
3A7
330
39F
100
AcDbEntity
  8
Defpoints
 62
     0
100
AcDbPoint
 10
-228.50419616699
 20
163.54019165039
 30
0.0
  0
POINT
  5
3A8
330
39F
100
AcDbEntity
  8
Defpoints
 62
     0
100
AcDbPoint
 10
-238.50419616699
 20
167.54019165039
 30
0.0
  0
POINT
  5
3A9
330
39F
100
AcDbEntity
  8
Defpoints
 62
     0
100
AcDbPoint
 10
-238.50419616699
 20
147.54019165039
 30
0.0
  0
ENDBLK
  5
3AA
330
39F
100
AcDbEntity
  8
0
100
AcDbBlockEnd
  0
BLOCK
  5
3AC
330
3AB
100
AcDbEntity
  8
0
100
AcDbBlockBegin
  2
*D32
 70
     1
 10
0.0
 20
0.0
 30
0.0
  3
*D32
  1

  0
LINE
  5
3AD
330
3AB
100
AcDbEntity
  8
PV0001_1
100
AcDbLine
 10
-212.50419616699
 20
164.79019165039
 30
0.0
 11
-212.50419616699
 21
138.54019165039
 31
0.0
  0
LINE
  5
3AE
330
3AB
100
AcDbEntity
  8
PV0001_1
100
AcDbLine
 10
-320.00421142578
 20
139.54019165039
 30
0.0
 11
-215.00419616699
 21
139.54019165039
 31
0.0
  0
INSERT
  5
3AF
330
3AB
100
AcDbEntity
  8
PV0001_1
100
AcDbBlockReference
  2
_Open
 10
-322.50421142578
 20
139.54019165039
 30
0.0
 41
2.5
 42
2.5
 43
2.5
 50
180.0
  0
INSERT
  5
3B0
330
3AB
100
AcDbEntity
  8
PV0001_1
100
AcDbBlockReference
  2
_Open
 10
-212.50419616699
 20
139.54019165039
 30
0.0
 41
2.5
 42
2.5
 43
2.5
  0
MTEXT
  5
3B1
330
3AB
100
AcDbEntity
  8
PV0001_1
 62
     2
100
AcDbMText
 10
-267.50421142578
 20
142.64019165039
 30
0.0
 40
3.2
 41
0.0
 71
     5
 72
     1
  1
110
 73
     1
 44
1.0
1001
ACAD
1000
MTEXTBEGIN
1070
    73
1070
     1
1070
    44
1040
1.0
1070
    74
1070
     0
1000
MTEXTEND
  0
POINT
  5
3B2
330
3AB
100
AcDbEntity
  8
Defpoints
 62
     0
100
AcDbPoint
 10
-322.50421142578
 20
177.7901763916
 30
0.0
  0
POINT
  5
3B3
330
3AB
100
AcDbEntity
  8
Defpoints
 62
     0
100
AcDbPoint
 10
-212.50419616699
 20
165.79019165039
 30
0.0
  0
POINT
  5
3B4
330
3AB
100
AcDbEntity
  8
Defpoints
 62
     0
100
AcDbPoint
 10
-212.50419616699
 20
139.54019165039
 30
0.0
  0
ENDBLK
  5
3B5
330
3AB
100
AcDbEntity
  8
0
100
AcDbBlockEnd
  0
BLOCK
  5
3B7
330
3B6
100
AcDbEntity
  8
0
100
AcDbBlockBegin
  2
*D33
 70
     1
 10
0.0
 20
0.0
 30
0.0
  3
*D33
  1

  0
LINE
  5
3B8
330
3B6
100
AcDbEntity
  8
PV0001_1
100
AcDbLine
 10
-322.50421142578
 20
174.7901763916
 30
0.0
 11
-322.50421142578
 21
130.54019165039
 31
0.0
  0
LINE
  5
3B9
330
3B6
100
AcDbEntity
  8
PV0001_1
100
AcDbLine
 10
-161.54730224609
 20
169.29019165039
 30
0.0
 11
-161.54730224609
 21
130.54019165039
 31
0.0
  0
LINE
  5
3BA
330
3B6
100
AcDbEntity
  8
PV0001_1
100
AcDbLine
 10
-320.00421142578
 20
131.54019165039
 30
0.0
 11
-164.04730224609
 21
131.54019165039
 31
0.0
  0
INSERT
  5
3BB
330
3B6
100
AcDbEntity
  8
PV0001_1
100
AcDbBlockReference
  2
_Open
 10
-322.50421142578
 20
131.54019165039
 30
0.0
 41
2.5
 42
2.5
 43
2.5
 50
180.0
  0
INSERT
  5
3BC
330
3B6
100
AcDbEntity
  8
PV0001_1
100
AcDbBlockReference
  2
_Open
 10
-161.54730224609
 20
131.54019165039
 30
0.0
 41
2.5
 42
2.5
 43
2.5
  0
MTEXT
  5
3BD
330
3B6
100
AcDbEntity
  8
PV0001_1
 62
     2
100
AcDbMText
 10
-242.02575683593
 20
134.64019165039
 30
0.0
 40
3.2
 41
0.0
 71
     5
 72
     1
  1
MAX.161
 73
     1
 44
1.0
1001
ACAD
1000
MTEXTBEGIN
1070
    73
1070
     1
1070
    44
1040
1.0
1070
    74
1070
     0
1000
MTEXTEND
  0
POINT
  5
3BE
330
3B6
100
AcDbEntity
  8
Defpoints
 62
     0
100
AcDbPoint
 10
-322.50421142578
 20
175.7901763916
 30
0.0
  0
POINT
  5
3BF
330
3B6
100
AcDbEntity
  8
Defpoints
 62
     0
100
AcDbPoint
 10
-161.54730224609
 20
170.29019165039
 30
0.0
  0
POINT
  5
3C0
330
3B6
100
AcDbEntity
  8
Defpoints
 62
     0
100
AcDbPoint
 10
-161.54730224609
 20
131.54019165039
 30
0.0
  0
ENDBLK
  5
3C1
330
3B6
100
AcDbEntity
  8
0
100
AcDbBlockEnd
  0
BLOCK
  5
3C3
330
3C2
100
AcDbEntity
  8
0
100
AcDbBlockBegin
  2
*D34
 70
     1
 10
0.0
 20
0.0
 30
0.0
  3
*D34
  1

  0
LINE
  5
3C4
330
3C2
100
AcDbEntity
  8
PV0001_1
100
AcDbLine
 10
-250.50421142578
 20
219.29016113281
 30
0.0
 11
-250.50421142578
 21
244.29019165039
 31
0.0
  0
LINE
  5
3C5
330
3C2
100
AcDbEntity
  8
PV0001_1
100
AcDbLine
 10
-212.50419616699
 20
226.79019165039
 30
0.0
 11
-212.50419616699
 21
244.29019165039
 31
0.0
  0
LINE
  5
3C6
330
3C2
100
AcDbEntity
  8
PV0001_1
100
AcDbLine
 10
-248.00421142578
 20
243.29019165039
 30
0.0
 11
-215.00419616699
 21
243.29019165039
 31
0.0
  0
INSERT
  5
3C7
330
3C2
100
AcDbEntity
  8
PV0001_1
100
AcDbBlockReference
  2
_Open
 10
-250.50421142578
 20
243.29019165039
 30
0.0
 41
2.5
 42
2.5
 43
2.5
 50
180.0
  0
INSERT
  5
3C8
330
3C2
100
AcDbEntity
  8
PV0001_1
100
AcDbBlockReference
  2
_Open
 10
-212.50419616699
 20
243.29019165039
 30
0.0
 41
2.5
 42
2.5
 43
2.5
  0
MTEXT
  5
3C9
330
3C2
100
AcDbEntity
  8
PV0001_1
 62
     2
100
AcDbMText
 10
-231.50421142578
 20
246.39019165039
 30
0.0
 40
3.2
 41
0.0
 71
     5
 72
     1
  1
38
 73
     1
 44
1.0
1001
ACAD
1000
MTEXTBEGIN
1070
    73
1070
     1
1070
    44
1040
1.0
1070
    74
1070
     0
1000
MTEXTEND
  0
POINT
  5
3CA
330
3C2
100
AcDbEntity
  8
Defpoints
 62
     0
100
AcDbPoint
 10
-250.50421142578
 20
218.29016113281
 30
0.0
  0
POINT
  5
3CB
330
3C2
100
AcDbEntity
  8
Defpoints
 62
     0
100
AcDbPoint
 10
-212.50419616699
 20
225.79019165039
 30
0.0
  0
POINT
  5
3CC
330
3C2
100
AcDbEntity
  8
Defpoints
 62
     0
100
AcDbPoint
 10
-212.50419616699
 20
243.29019165039
 30
0.0
  0
ENDBLK
  5
3CD
330
3C2
100
AcDbEntity
  8
0
100
AcDbBlockEnd
  0
BLOCK
  5
3CF
330
3CE
100
AcDbEntity
  8
0
100
AcDbBlockBegin
  2
*D35
 70
     1
 10
0.0
 20
0.0
 30
0.0
  3
*D35
  1

  0
LINE
  5
3D0
330
3CE
100
AcDbEntity
  8
PV0001_1
100
AcDbLine
 10
-273.50421142578
 20
171.30538940429
 30
0.0
 11
-273.50421142578
 21
146.54019165039
 31
0.0
  0
LINE
  5
3D1
330
3CE
100
AcDbEntity
  8
PV0001_1
100
AcDbLine
 10
-320.00421142578
 20
147.54019165039
 30
0.0
 11
-276.00421142578
 21
147.54019165039
 31
0.0
  0
INSERT
  5
3D2
330
3CE
100
AcDbEntity
  8
PV0001_1
100
AcDbBlockReference
  2
_Open
 10
-322.50421142578
 20
147.54019165039
 30
0.0
 41
2.5
 42
2.5
 43
2.5
 50
180.0
  0
INSERT
  5
3D3
330
3CE
100
AcDbEntity
  8
PV0001_1
100
AcDbBlockReference
  2
_Open
 10
-273.50421142578
 20
147.54019165039
 30
0.0
 41
2.5
 42
2.5
 43
2.5
  0
MTEXT
  5
3D4
330
3CE
100
AcDbEntity
  8
PV0001_1
 62
     2
100
AcDbMText
 10
-306.42965698242
 20
150.64019165039
 30
0.0
 40
3.2
 41
0.0
 71
     5
 72
     1
  1
49
 73
     1
 44
1.0
1001
ACAD
1000
MTEXTBEGIN
1070
    73
1070
     1
1070
    44
1040
1.0
1070
    74
1070
     0
1000
MTEXTEND
  0
POINT
  5
3D5
330
3CE
100
AcDbEntity
  8
Defpoints
 62
     0
100
AcDbPoint
 10
-322.50421142578
 20
177.7901763916
 30
0.0
  0
POINT
  5
3D6
330
3CE
100
AcDbEntity
  8
Defpoints
 62
     0
100
AcDbPoint
 10
-273.50421142578
 20
172.30538940429
 30
0.0
  0
POINT
  5
3D7
330
3CE
100
AcDbEntity
  8
Defpoints
 62
     0
100
AcDbPoint
 10
-273.50421142578
 20
147.54019165039
 30
0.0
  0
ENDBLK
  5
3D8
330
3CE
100
AcDbEntity
  8
0
100
AcDbBlockEnd
  0
BLOCK
  5
3DA
330
3D9
100
AcDbEntity
  8
0
100
AcDbBlockBegin
  2
*U36
 70
     1
 10
-220.32661437988
 20
218.29025268554
 30
0.0
  3
*U36
  1

  0
LEADER
  5
3DB
330
3D9
100
AcDbEntity
  8
0
  6
Continuous
 62
     4
 48
0.5
100
AcDbLeader
  3
AM_ISO$7
 76
     2
 10
-220.32661437988
 20
218.29025268554
 30
0.0
 10
-205.89283752441
 20
243.29023742675
 30
0.0
1001
ACAD
1000
DSTYLE
1002
{
1070
   173
1070
     1
1070
   341
1005
369
1070
   176
1070
     0
1002
}
  0
ENDBLK
  5
3DC
330
3D9
100
AcDbEntity
  8
0
100
AcDbBlockEnd
  0
BLOCK
  5
3DE
330
3DD
100
AcDbEntity
  8
0
100
AcDbBlockBegin
  2
*U37
 70
     1
 10
-279.92211914062
 20
179.43510437011
 30
0.0
  3
*U37
  1

  0
LEADER
  5
3DF
330
3DD
100
AcDbEntity
  8
0
  6
Continuous
 62
     4
100
AcDbLeader
  3
AM_ISO$7
 76
     2
 10
-279.92211914062
 20
179.43510437011
 30
0.0
 10
-312.19296264648
 20
123.54034423828
 30
0.0
1001
ACAD
1000
DSTYLE
1002
{
1070
   173
1070
     1
1070
   341
1005
369
1070
   176
1070
     0
1002
}
  0
ENDBLK
  5
3E0
330
3DD
100
AcDbEntity
  8
0
100
AcDbBlockEnd
  0
BLOCK
  5
5D7
330
519
100
AcDbEntity
  8
0
100
AcDbBlockBegin
  2
*D39
 70
     1
 10
0.0
 20
0.0
 30
0.0
  3
*D39
  1

  0
LINE
  5
713
330
519
100
AcDbEntity
  8
PV0001_1
 62
     3
100
AcDbLine
 10
187.7299861804348
 20
74.00095937416103
 30
0.0
 11
187.7299861804348
 21
47.25095937416102
 31
0.0
  0
LINE
  5
714
330
519
100
AcDbEntity
  8
PV0001_1
 62
     3
100
AcDbLine
 10
195.7299861804348
 20
81.50095937416102
 30
0.0
 11
195.7299861804348
 21
47.25095937416102
 31
0.0
  0
LINE
  5
715
330
519
100
AcDbEntity
  8
PV0001_1
 62
     3
100
AcDbLine
 10
184.2299861804348
 20
48.25095937416103
 30
0.0
 11
180.7299861804348
 21
48.25095937416103
 31
0.0
  0
LINE
  5
716
330
519
100
AcDbEntity
  8
PV0001_1
 62
     3
100
AcDbLine
 10
199.2299861804348
 20
48.25095937416103
 30
0.0
 11
202.7299861804348
 21
48.25095937416103
 31
0.0
  0
LINE
  5
717
330
519
100
AcDbEntity
  8
PV0001_1
 62
     3
100
AcDbLine
 10
187.7299861804348
 20
48.25095937416103
 30
0.0
 11
195.7299861804348
 21
48.25095937416103
 31
0.0
  0
INSERT
  5
718
330
519
100
AcDbEntity
  8
PV0001_1
 62
     3
100
AcDbBlockReference
  2
_Open
 10
187.7299861804348
 20
48.25095937416103
 30
0.0
 41
3.5
 42
3.5
 43
3.5
  0
INSERT
  5
719
330
519
100
AcDbEntity
  8
PV0001_1
 62
     3
100
AcDbBlockReference
  2
_Open
 10
195.7299861804348
 20
48.25095937416103
 30
0.0
 41
3.5
 42
3.5
 43
3.5
 50
180.0
  0
MTEXT
  5
71A
330
519
100
AcDbEntity
  8
PV0001_1
 62
     2
100
AcDbMText
 10
191.7299861804348
 20
50.60095937416103
 30
0.0
 40
3.2
 41
0.0
 71
     5
 72
     1
  1
\A2;8
 73
     1
 44
1.0
1001
ACAD
1000
MTEXTBEGIN
1070
    73
1070
     1
1070
    44
1040
1.0
1070
    74
1070
     0
1000
MTEXTEND
  0
POINT
  5
71B
330
519
100
AcDbEntity
  8
Defpoints
 62
     0
100
AcDbPoint
 10
187.7299861804348
 20
74.50095937416103
 30
0.0
  0
POINT
  5
71C
330
519
100
AcDbEntity
  8
Defpoints
 62
     0
100
AcDbPoint
 10
195.7299861804348
 20
82.00095937416103
 30
0.0
  0
POINT
  5
71D
330
519
100
AcDbEntity
  8
Defpoints
 62
     0
100
AcDbPoint
 10
195.7299861804348
 20
48.25095937416103
 30
0.0
  0
ENDBLK
  5
5D8
330
519
100
AcDbEntity
  8
0
100
AcDbBlockEnd
  0
BLOCK
  5
5D9
330
525
100
AcDbEntity
  8
0
100
AcDbBlockBegin
  2
*D40
 70
     1
 10
0.0
 20
0.0
 30
0.0
  3
*D40
  1

  0
LINE
  5
71E
330
525
100
AcDbEntity
  8
PV0001_1
 62
     3
100
AcDbLine
 10
78.22997092164484
 20
125.500974632941
 30
0.0
 11
49.23003195680487
 21
125.500974632941
 31
0.0
  0
LINE
  5
71F
330
525
100
AcDbEntity
  8
PV0001_1
 62
     3
100
AcDbLine
 10
78.22997092164484
 20
83.50094411537103
 30
0.0
 11
49.23003195680486
 21
83.50094411537103
 31
0.0
  0
LINE
  5
720
330
525
100
AcDbEntity
  8
PV0001_1
 62
     3
100
AcDbLine
 10
50.23003195680487
 20
122.000974632941
 30
0.0
 11
50.23003195680487
 21
87.00094411537103
 31
0.0
  0
INSERT
  5
721
330
525
100
AcDbEntity
  8
PV0001_1
 62
     3
100
AcDbBlockReference
  2
_Open
 10
50.23003195680487
 20
125.500974632941
 30
0.0
 41
3.5
 42
3.5
 43
3.5
 50
90.0
  0
INSERT
  5
722
330
525
100
AcDbEntity
  8
PV0001_1
 62
     3
100
AcDbBlockReference
  2
_Open
 10
50.23003195680487
 20
83.50094411537103
 30
0.0
 41
3.5
 42
3.5
 43
3.5
 50
270.0
  0
MTEXT
  5
723
330
525
100
AcDbEntity
  8
PV0001_1
 62
     2
100
AcDbMText
 10
47.88003195680484
 20
104.500959374161
 30
0.0
 40
3.2
 41
0.0
 71
     5
 72
     1
  1
\A2;\U+220542
 11
0.0000000000000001
 21
1.0
 31
0.0
 73
     1
 44
1.0
1001
ACAD
1000
MTEXTBEGIN
1070
    73
1070
     1
1070
    44
1040
1.0
1070
    74
1070
     0
1000
MTEXTEND
  0
POINT
  5
724
330
525
100
AcDbEntity
  8
Defpoints
 62
     0
100
AcDbPoint
 10
78.72997092164485
 20
125.500974632941
 30
0.0
  0
POINT
  5
725
330
525
100
AcDbEntity
  8
Defpoints
 62
     0
100
AcDbPoint
 10
78.72997092164485
 20
83.50094411537103
 30
0.0
  0
POINT
  5
726
330
525
100
AcDbEntity
  8
Defpoints
 62
     0
100
AcDbPoint
 10
50.23003195680487
 20
83.50094411537103
 30
0.0
  0
ENDBLK
  5
5DA
330
525
100
AcDbEntity
  8
0
100
AcDbBlockEnd
  0
BLOCK
  5
5DB
330
52F
100
AcDbEntity
  8
0
100
AcDbBlockBegin
  2
*D41
 70
     1
 10
0.0
 20
0.0
 30
0.0
  3
*D41
  1

  0
LINE
  5
727
330
52F
100
AcDbEntity
  8
PV0001_1
 62
     3
100
AcDbLine
 10
237.1868801013349
 20
132.000974632941
 30
0.0
 11
256.2299556628549
 21
132.000974632941
 31
0.0
  0
LINE
  5
728
330
52F
100
AcDbEntity
  8
PV0001_1
 62
     3
100
AcDbLine
 10
237.1868801013349
 20
77.00095937416103
 30
0.0
 11
256.2299556628549
 21
77.00095937416103
 31
0.0
  0
LINE
  5
729
330
52F
100
AcDbEntity
  8
PV0001_1
 62
     3
100
AcDbLine
 10
255.2299556628549
 20
128.500974632941
 30
0.0
 11
255.2299556628549
 21
80.50095937416102
 31
0.0
  0
INSERT
  5
72A
330
52F
100
AcDbEntity
  8
PV0001_1
 62
     3
100
AcDbBlockReference
  2
_Open
 10
255.2299556628549
 20
132.000974632941
 30
0.0
 41
3.5
 42
3.5
 43
3.5
 50
90.0
  0
INSERT
  5
72B
330
52F
100
AcDbEntity
  8
PV0001_1
 62
     3
100
AcDbBlockReference
  2
_Open
 10
255.2299556628549
 20
77.00095937416103
 30
0.0
 41
3.5
 42
3.5
 43
3.5
 50
270.0
  0
MTEXT
  5
72C
330
52F
100
AcDbEntity
  8
PV0001_1
 62
     2
100
AcDbMText
 10
252.8799556628549
 20
104.500959374161
 30
0.0
 40
3.2
 41
0.0
 71
     5
 72
     1
  1
\A2;\U+220555
 11
0.0000000000000001
 21
1.0
 31
0.0
 73
     1
 44
1.0
1001
ACAD
1000
MTEXTBEGIN
1070
    73
1070
     1
1070
    44
1040
1.0
1070
    74
1070
     0
1000
MTEXTEND
  0
POINT
  5
72D
330
52F
100
AcDbEntity
  8
Defpoints
 62
     0
100
AcDbPoint
 10
236.6868801013349
 20
132.000974632941
 30
0.0
  0
POINT
  5
72E
330
52F
100
AcDbEntity
  8
Defpoints
 62
     0
100
AcDbPoint
 10
236.6868801013349
 20
77.00095937416103
 30
0.0
  0
POINT
  5
72F
330
52F
100
AcDbEntity
  8
Defpoints
 62
     0
100
AcDbPoint
 10
255.2299556628549
 20
77.00095937416103
 30
0.0
  0
ENDBLK
  5
5DC
330
52F
100
AcDbEntity
  8
0
100
AcDbBlockEnd
  0
BLOCK
  5
5DD
330
539
100
AcDbEntity
  8
0
100
AcDbBlockBegin
  2
*D42
 70
     1
 10
0.0
 20
0.0
 30
0.0
  3
*D42
  1

  0
LINE
  5
730
330
539
100
AcDbEntity
  8
PV0001_1
 62
     3
100
AcDbLine
 10
191.8998775378549
 20
134.500959374161
 30
0.0
 11
264.2299556628549
 21
134.500959374161
 31
0.0
  0
LINE
  5
731
330
539
100
AcDbEntity
  8
PV0001_1
 62
     3
100
AcDbLine
 10
191.8998165027049
 20
74.50095937416103
 30
0.0
 11
264.2299556628549
 21
74.50095937416101
 31
0.0
  0
LINE
  5
732
330
539
100
AcDbEntity
  8
PV0001_1
 62
     3
100
AcDbLine
 10
263.2299556628549
 20
131.000959374161
 30
0.0
 11
263.2299556628549
 21
78.00095937416101
 31
0.0
  0
INSERT
  5
733
330
539
100
AcDbEntity
  8
PV0001_1
 62
     3
100
AcDbBlockReference
  2
_Open
 10
263.2299556628549
 20
134.500959374161
 30
0.0
 41
3.5
 42
3.5
 43
3.5
 50
90.0
  0
INSERT
  5
734
330
539
100
AcDbEntity
  8
PV0001_1
 62
     3
100
AcDbBlockReference
  2
_Open
 10
263.2299556628549
 20
74.50095937416101
 30
0.0
 41
3.5
 42
3.5
 43
3.5
 50
270.0
  0
MTEXT
  5
735
330
539
100
AcDbEntity
  8
PV0001_1
 62
     2
100
AcDbMText
 10
260.8799556628548
 20
104.500959374161
 30
0.0
 40
3.2
 41
0.0
 71
     5
 72
     1
  1
\A2;\U+220560
 11
0.0000000000000001
 21
1.0
 31
0.0
 73
     1
 44
1.0
1001
ACAD
1000
MTEXTBEGIN
1070
    73
1070
     1
1070
    44
1040
1.0
1070
    74
1070
     0
1000
MTEXTEND
  0
POINT
  5
736
330
539
100
AcDbEntity
  8
Defpoints
 62
     0
100
AcDbPoint
 10
191.3998775378549
 20
134.500959374161
 30
0.0
  0
POINT
  5
737
330
539
100
AcDbEntity
  8
Defpoints
 62
     0
100
AcDbPoint
 10
191.3998165027049
 20
74.50095937416103
 30
0.0
  0
POINT
  5
738
330
539
100
AcDbEntity
  8
Defpoints
 62
     0
100
AcDbPoint
 10
263.2299556628549
 20
74.50095937416101
 30
0.0
  0
ENDBLK
  5
5DE
330
539
100
AcDbEntity
  8
0
100
AcDbBlockEnd
  0
BLOCK
  5
5DF
330
543
100
AcDbEntity
  8
0
100
AcDbBlockBegin
  2
*D43
 70
     1
 10
0.0
 20
0.0
 30
0.0
  3
*D43
  1

  0
LINE
  5
739
330
543
100
AcDbEntity
  8
PV0001_1
 62
     3
100
AcDbLine
 10
163.8280696765348
 20
137.000959374161
 30
0.0
 11
41.23003195680488
 21
137.000959374161
 31
0.0
  0
LINE
  5
73A
330
543
100
AcDbEntity
  8
PV0001_1
 62
     3
100
AcDbLine
 10
163.8280696765348
 20
72.00095937416103
 30
0.0
 11
41.23003195680486
 21
72.00095937416107
 31
0.0
  0
LINE
  5
73B
330
543
100
AcDbEntity
  8
PV0001_1
 62
     3
100
AcDbLine
 10
42.23003195680487
 20
133.500959374161
 30
0.0
 11
42.23003195680486
 21
75.50095937416107
 31
0.0
  0
INSERT
  5
73C
330
543
100
AcDbEntity
  8
PV0001_1
 62
     3
100
AcDbBlockReference
  2
_Open
 10
42.23003195680487
 20
137.000959374161
 30
0.0
 41
3.5
 42
3.5
 43
3.5
 50
90.0
  0
INSERT
  5
73D
330
543
100
AcDbEntity
  8
PV0001_1
 62
     3
100
AcDbBlockReference
  2
_Open
 10
42.23003195680486
 20
72.00095937416107
 30
0.0
 41
3.5
 42
3.5
 43
3.5
 50
270.0
  0
MTEXT
  5
73E
330
543
100
AcDbEntity
  8
PV0001_1
 62
     2
100
AcDbMText
 10
39.88003195680485
 20
104.500959374161
 30
0.0
 40
3.2
 41
0.0
 71
     5
 72
     1
  1
\A2;\U+220565
 11
0.0000000000000001
 21
1.0
 31
0.0
 73
     1
 44
1.0
1001
ACAD
1000
MTEXTBEGIN
1070
    73
1070
     1
1070
    44
1040
1.0
1070
    74
1070
     0
1000
MTEXTEND
  0
POINT
  5
73F
330
543
100
AcDbEntity
  8
Defpoints
 62
     0
100
AcDbPoint
 10
164.3280696765348
 20
137.000959374161
 30
0.0
  0
POINT
  5
740
330
543
100
AcDbEntity
  8
Defpoints
 62
     0
100
AcDbPoint
 10
164.3280696765348
 20
72.00095937416103
 30
0.0
  0
POINT
  5
741
330
543
100
AcDbEntity
  8
Defpoints
 62
     0
100
AcDbPoint
 10
42.23003195680486
 20
72.00095937416107
 30
0.0
  0
ENDBLK
  5
5E0
330
543
100
AcDbEntity
  8
0
100
AcDbBlockEnd
  0
BLOCK
  5
5E1
330
54D
100
AcDbEntity
  8
0
100
AcDbBlockBegin
  2
*D44
 70
     1
 10
0.0
 20
0.0
 30
0.0
  3
*D44
  1

  0
LINE
  5
742
330
54D
100
AcDbEntity
  8
PV0001_1
 62
     3
100
AcDbLine
 10
171.7299861804348
 20
71.75095937416102
 30
0.0
 11
171.7299861804348
 21
55.25095937416103
 31
0.0
  0
LINE
  5
743
330
54D
100
AcDbEntity
  8
PV0001_1
 62
     3
100
AcDbLine
 10
161.7299861804348
 20
75.75095937416103
 30
0.0
 11
161.7299861804348
 21
55.25095937416103
 31
0.0
  0
LINE
  5
744
330
54D
100
AcDbEntity
  8
PV0001_1
 62
     3
100
AcDbLine
 10
168.2299861804348
 20
56.25095937416102
 30
0.0
 11
165.2299861804348
 21
56.25095937416102
 31
0.0
  0
INSERT
  5
745
330
54D
100
AcDbEntity
  8
PV0001_1
 62
     3
100
AcDbBlockReference
  2
_Open
 10
171.7299861804348
 20
56.25095937416102
 30
0.0
 41
3.5
 42
3.5
 43
3.5
  0
INSERT
  5
746
330
54D
100
AcDbEntity
  8
PV0001_1
 62
     3
100
AcDbBlockReference
  2
_Open
 10
161.7299861804348
 20
56.25095937416102
 30
0.0
 41
3.5
 42
3.5
 43
3.5
 50
180.0
  0
MTEXT
  5
747
330
54D
100
AcDbEntity
  8
PV0001_1
 62
     2
100
AcDbMText
 10
166.7299861804348
 20
58.60095937416103
 30
0.0
 40
3.2
 41
0.0
 71
     5
 72
     1
  1
\A2;10
 73
     1
 44
1.0
1001
ACAD
1000
MTEXTBEGIN
1070
    73
1070
     1
1070
    44
1040
1.0
1070
    74
1070
     0
1000
MTEXTEND
  0
POINT
  5
748
330
54D
100
AcDbEntity
  8
Defpoints
 62
     0
100
AcDbPoint
 10
171.7299861804348
 20
72.25095937416103
 30
0.0
  0
POINT
  5
749
330
54D
100
AcDbEntity
  8
Defpoints
 62
     0
100
AcDbPoint
 10
161.7299861804348
 20
76.25095937416102
 30
0.0
  0
POINT
  5
74A
330
54D
100
AcDbEntity
  8
Defpoints
 62
     0
100
AcDbPoint
 10
161.7299861804348
 20
56.25095937416102
 30
0.0
  0
ENDBLK
  5
5E2
330
54D
100
AcDbEntity
  8
0
100
AcDbBlockEnd
  0
BLOCK
  5
5E3
330
557
100
AcDbEntity
  8
0
100
AcDbBlockBegin
  2
*D45
 70
     1
 10
0.0
 20
0.0
 30
0.0
  3
*D45
  1

  0
LINE
  5
74B
330
557
100
AcDbEntity
  8
PV0001_1
 62
     3
100
AcDbLine
 10
187.7299861804348
 20
74.00095937416103
 30
0.0
 11
187.7299861804348
 21
47.25095937416102
 31
0.0
  0
LINE
  5
74C
330
557
100
AcDbEntity
  8
PV0001_1
 62
     3
100
AcDbLine
 10
81.22997092164485
 20
48.25095937416103
 30
0.0
 11
184.2299861804348
 21
48.25095937416103
 31
0.0
  0
INSERT
  5
74D
330
557
100
AcDbEntity
  8
PV0001_1
 62
     3
100
AcDbBlockReference
  2
_Open
 10
77.72997092164485
 20
48.25095937416103
 30
0.0
 41
3.5
 42
3.5
 43
3.5
 50
180.0
  0
INSERT
  5
74E
330
557
100
AcDbEntity
  8
PV0001_1
 62
     3
100
AcDbBlockReference
  2
_Open
 10
187.7299861804348
 20
48.25095937416103
 30
0.0
 41
3.5
 42
3.5
 43
3.5
  0
MTEXT
  5
74F
330
557
100
AcDbEntity
  8
PV0001_1
 62
     2
100
AcDbMText
 10
132.7299709216448
 20
50.60095937416103
 30
0.0
 40
3.2
 41
0.0
 71
     5
 72
     1
  1
\A2;110
 73
     1
 44
1.0
1001
ACAD
1000
MTEXTBEGIN
1070
    73
1070
     1
1070
    44
1040
1.0
1070
    74
1070
     0
1000
MTEXTEND
  0
POINT
  5
750
330
557
100
AcDbEntity
  8
Defpoints
 62
     0
100
AcDbPoint
 10
77.72997092164485
 20
86.50094411537102
 30
0.0
  0
POINT
  5
751
330
557
100
AcDbEntity
  8
Defpoints
 62
     0
100
AcDbPoint
 10
187.7299861804348
 20
74.50095937416103
 30
0.0
  0
POINT
  5
752
330
557
100
AcDbEntity
  8
Defpoints
 62
     0
100
AcDbPoint
 10
187.7299861804348
 20
48.25095937416103
 30
0.0
  0
ENDBLK
  5
5E4
330
557
100
AcDbEntity
  8
0
100
AcDbBlockEnd
  0
BLOCK
  5
5E5
330
560
100
AcDbEntity
  8
0
100
AcDbBlockBegin
  2
*D46
 70
     1
 10
0.0
 20
0.0
 30
0.0
  3
*D46
  1

  0
LINE
  5
753
330
560
100
AcDbEntity
  8
PV0001_1
 62
     3
100
AcDbLine
 10
77.72997092164485
 20
84.00094411537102
 30
0.0
 11
77.72997092164485
 21
39.25095937416103
 31
0.0
  0
LINE
  5
754
330
560
100
AcDbEntity
  8
PV0001_1
 62
     3
100
AcDbLine
 10
238.6868801013349
 20
78.50095937416103
 30
0.0
 11
238.6868801013349
 21
39.25095937416103
 31
0.0
  0
LINE
  5
755
330
560
100
AcDbEntity
  8
PV0001_1
 62
     3
100
AcDbLine
 10
81.22997092164485
 20
40.25095937416103
 30
0.0
 11
235.1868801013349
 21
40.25095937416103
 31
0.0
  0
INSERT
  5
756
330
560
100
AcDbEntity
  8
PV0001_1
 62
     3
100
AcDbBlockReference
  2
_Open
 10
77.72997092164485
 20
40.25095937416103
 30
0.0
 41
3.5
 42
3.5
 43
3.5
 50
180.0
  0
INSERT
  5
757
330
560
100
AcDbEntity
  8
PV0001_1
 62
     3
100
AcDbBlockReference
  2
_Open
 10
238.6868801013349
 20
40.25095937416103
 30
0.0
 41
3.5
 42
3.5
 43
3.5
  0
MTEXT
  5
758
330
560
100
AcDbEntity
  8
PV0001_1
 62
     2
100
AcDbMText
 10
158.2084255114948
 20
42.60095937416102
 30
0.0
 40
3.2
 41
0.0
 71
     5
 72
     1
  1
\A2;MAX.161
 73
     1
 44
1.0
1001
ACAD
1000
MTEXTBEGIN
1070
    73
1070
     1
1070
    44
1040
1.0
1070
    74
1070
     0
1000
MTEXTEND
  0
POINT
  5
759
330
560
100
AcDbEntity
  8
Defpoints
 62
     0
100
AcDbPoint
 10
77.72997092164485
 20
84.50094411537103
 30
0.0
  0
POINT
  5
75A
330
560
100
AcDbEntity
  8
Defpoints
 62
     0
100
AcDbPoint
 10
238.6868801013349
 20
79.00095937416103
 30
0.0
  0
POINT
  5
75B
330
560
100
AcDbEntity
  8
Defpoints
 62
     0
100
AcDbPoint
 10
238.6868801013349
 20
40.25095937416103
 30
0.0
  0
ENDBLK
  5
5E6
330
560
100
AcDbEntity
  8
0
100
AcDbBlockEnd
  0
BLOCK
  5
5E7
330
56A
100
AcDbEntity
  8
0
100
AcDbBlockBegin
  2
*D47
 70
     1
 10
0.0
 20
0.0
 30
0.0
  3
*D47
  1

  0
LINE
  5
75C
330
56A
100
AcDbEntity
  8
PV0001_1
 62
     3
100
AcDbLine
 10
149.7299709216448
 20
127.500928856581
 30
0.0
 11
149.7299709216448
 21
153.000959374161
 31
0.0
  0
LINE
  5
75D
330
56A
100
AcDbEntity
  8
PV0001_1
 62
     3
100
AcDbLine
 10
187.7299861804348
 20
135.000959374161
 30
0.0
 11
187.7299861804348
 21
153.000959374161
 31
0.0
  0
LINE
  5
75E
330
56A
100
AcDbEntity
  8
PV0001_1
 62
     3
100
AcDbLine
 10
153.2299709216448
 20
152.000959374161
 30
0.0
 11
184.2299861804348
 21
152.000959374161
 31
0.0
  0
INSERT
  5
75F
330
56A
100
AcDbEntity
  8
PV0001_1
 62
     3
100
AcDbBlockReference
  2
_Open
 10
149.7299709216448
 20
152.000959374161
 30
0.0
 41
3.5
 42
3.5
 43
3.5
 50
180.0
  0
INSERT
  5
760
330
56A
100
AcDbEntity
  8
PV0001_1
 62
     3
100
AcDbBlockReference
  2
_Open
 10
187.7299861804348
 20
152.000959374161
 30
0.0
 41
3.5
 42
3.5
 43
3.5
  0
MTEXT
  5
761
330
56A
100
AcDbEntity
  8
PV0001_1
 62
     2
100
AcDbMText
 10
168.7299709216448
 20
154.350959374161
 30
0.0
 40
3.2
 41
0.0
 71
     5
 72
     1
  1
\A2;38
 73
     1
 44
1.0
1001
ACAD
1000
MTEXTBEGIN
1070
    73
1070
     1
1070
    44
1040
1.0
1070
    74
1070
     0
1000
MTEXTEND
  0
POINT
  5
762
330
56A
100
AcDbEntity
  8
Defpoints
 62
     0
100
AcDbPoint
 10
149.7299709216448
 20
127.000928856581
 30
0.0
  0
POINT
  5
763
330
56A
100
AcDbEntity
  8
Defpoints
 62
     0
100
AcDbPoint
 10
187.7299861804348
 20
134.500959374161
 30
0.0
  0
POINT
  5
764
330
56A
100
AcDbEntity
  8
Defpoints
 62
     0
100
AcDbPoint
 10
187.7299861804348
 20
152.000959374161
 30
0.0
  0
ENDBLK
  5
5E8
330
56A
100
AcDbEntity
  8
0
100
AcDbBlockEnd
  0
BLOCK
  5
5E9
330
574
100
AcDbEntity
  8
0
100
AcDbBlockBegin
  2
*D48
 70
     1
 10
0.0
 20
0.0
 30
0.0
  3
*D48
  1

  0
LINE
  5
765
330
574
100
AcDbEntity
  8
PV0001_1
 62
     3
100
AcDbLine
 10
126.7299709216448
 20
80.51615712806102
 30
0.0
 11
126.7299709216448
 21
55.25095937416103
 31
0.0
  0
LINE
  5
766
330
574
100
AcDbEntity
  8
PV0001_1
 62
     3
100
AcDbLine
 10
81.22997092164485
 20
56.25095937416102
 30
0.0
 11
123.2299709216448
 21
56.25095937416102
 31
0.0
  0
INSERT
  5
767
330
574
100
AcDbEntity
  8
PV0001_1
 62
     3
100
AcDbBlockReference
  2
_Open
 10
77.72997092164485
 20
56.25095937416102
 30
0.0
 41
3.5
 42
3.5
 43
3.5
 50
180.0
  0
INSERT
  5
768
330
574
100
AcDbEntity
  8
PV0001_1
 62
     3
100
AcDbBlockReference
  2
_Open
 10
126.7299709216448
 20
56.25095937416102
 30
0.0
 41
3.5
 42
3.5
 43
3.5
  0
MTEXT
  5
769
330
574
100
AcDbEntity
  8
PV0001_1
 62
     2
100
AcDbMText
 10
93.80452536500484
 20
58.60095937416103
 30
0.0
 40
3.2
 41
0.0
 71
     5
 72
     1
  1
\A2;49
 73
     1
 44
1.0
1001
ACAD
1000
MTEXTBEGIN
1070
    73
1070
     1
1070
    44
1040
1.0
1070
    74
1070
     0
1000
MTEXTEND
  0
POINT
  5
76A
330
574
100
AcDbEntity
  8
Defpoints
 62
     0
100
AcDbPoint
 10
77.72997092164485
 20
86.50094411537102
 30
0.0
  0
POINT
  5
76B
330
574
100
AcDbEntity
  8
Defpoints
 62
     0
100
AcDbPoint
 10
126.7299709216448
 20
81.01615712806102
 30
0.0
  0
POINT
  5
76C
330
574
100
AcDbEntity
  8
Defpoints
 62
     0
100
AcDbPoint
 10
126.7299709216448
 20
56.25095937416102
 30
0.0
  0
ENDBLK
  5
5EA
330
574
100
AcDbEntity
  8
0
100
AcDbBlockEnd
  0
BLOCK
  5
5F0
330
5ED
100
AcDbEntity
  8
0
100
AcDbBlockBegin
  2
A$C330D16BA
 70
     0
 10
0.0
 20
0.0
 30
0.0
  3
A$C330D16BA
  1

  0
TEXT
  5
5EE
330
5ED
100
AcDbEntity
  8
AM_6
100
AcDbText
 10
1.103023608026433
 20
1.789964790236922
 30
0.0
 40
3.5
  1
HT3-DT3-02
100
AcDbText
  0
LINE
  5
5EF
330
5ED
100
AcDbEntity
  8
AM_4
100
AcDbLine
 10
0.0000000000002274
 20
0.0000000000001137
 30
0.0
 11
24.26653073119314
 21
0.0000000000001137
 31
0.0
  0
ENDBLK
  5
5F1
330
5ED
100
AcDbEntity
  8
0
100
AcDbBlockEnd
  0
BLOCK
  5
780
330
77A
100
AcDbEntity
  8
0
100
AcDbBlockBegin
  2
*S51
 70
     1
 10
0.0
 20
0.0
 30
0.0
  3
*S51
  1

  0
LINE
  5
77B
330
77A
100
AcDbEntity
  8
AM_5
 62
     3
100
AcDbLine
 10
203.7444888751295
 20
291.6151945932635
 30
0.0
 11
184.7698695857893
 21
291.6151945932635
 31
0.0
  0
LINE
  5
77C
330
77A
100
AcDbEntity
  8
AM_5
 62
     3
100
AcDbLine
 10
184.7698695857893
 20
291.6151945932635
 30
0.0
 11
172.0861216657096
 21
269.646298765289
 31
0.0
  0
TRACE
  5
77D
330
77A
100
AcDbEntity
  8
AM_5
 62
     3
100
AcDbTrace
 10
171.5809401821894
 20
269.937965430789
 30
0.0
 11
172.5913031492297
 21
269.354632099789
 31
0.0
 12
170.3361216657096
 22
266.6152098520434
 32
0.0
 13
170.3361216657096
 23
266.6152098520434
 33
0.0
  0
MTEXT
  5
77E
330
77A
100
AcDbEntity
  8
AM_5
 62
     2
100
AcDbMText
 10
188.2698695857893
 20
295.8151945932635
 30
0.0
 40
3.5
 41
0.0
 71
     1
 72
     5
  1
M45X1.5
 73
     1
 44
1.0
1001
ACAD
1000
MTEXTBEGIN
1070
    73
1070
     1
1070
    44
1040
1.0
1070
    74
1070
     0
1000
MTEXTEND
  0
LINE
  5
77F
330
77A
100
AcDbEntity
  8
AM_5
 62
     3
100
AcDbLine
 10
188.2698695857893
 20
291.6151945932635
 30
0.0
 11
203.7444888751295
 21
291.6151945932635
 31
0.0
  0
ENDBLK
  5
781
330
77A
100
AcDbEntity
  8
0
100
AcDbBlockEnd
  0
BLOCK
  5
789
330
783
100
AcDbEntity
  8
0
100
AcDbBlockBegin
  2
*S52
 70
     1
 10
0.0
 20
0.0
 30
0.0
  3
*S52
  1

  0
LINE
  5
784
330
783
100
AcDbEntity
  8
AM_5
 62
     3
100
AcDbLine
 10
97.9465328973613
 20
171.8651945932637
 30
0.0
 11
78.90084761817348
 21
171.8651945932637
 31
0.0
  0
LINE
  5
785
330
783
100
AcDbEntity
  8
AM_5
 62
     3
100
AcDbLine
 10
78.90084761817348
 20
171.8651945932637
 30
0.0
 11
109.6845255963747
 21
225.1840888953479
 31
0.0
  0
TRACE
  5
786
330
783
100
AcDbEntity
  8
AM_5
 62
     3
100
AcDbTrace
 10
110.1897070798949
 20
224.8924222298479
 30
0.0
 11
109.1793441128545
 21
225.4757555608479
 31
0.0
 12
111.4345255963747
 22
228.2151778085935
 32
0.0
 13
111.4345255963747
 23
228.2151778085935
 33
0.0
  0
MTEXT
  5
787
330
783
100
AcDbEntity
  8
AM_5
 62
     2
100
AcDbMText
 10
82.40084761817348
 20
176.3636717506241
 30
0.0
 40
3.5
 41
0.0
 71
     1
 72
     5
  1
2-Rc1/4
 73
     1
 44
1.0
1001
ACAD
1000
MTEXTBEGIN
1070
    73
1070
     1
1070
    44
1040
1.0
1070
    74
1070
     0
1000
MTEXTEND
  0
LINE
  5
788
330
783
100
AcDbEntity
  8
AM_5
 62
     3
100
AcDbLine
 10
82.40084761817348
 20
171.8651945932637
 30
0.0
 11
97.9465328973613
 21
171.8651945932637
 31
0.0
  0
ENDBLK
  5
78A
330
783
100
AcDbEntity
  8
0
100
AcDbBlockEnd
  0
ENDSEC
  0
SECTION
  2
ENTITIES
  0
LINE
  5
22A
330
23
100
AcDbEntity
  8
AM_0
  6
Continuous
100
AcDbLine
 10
178.8361216657096
 20
274.1151945932635
 30
0.0
 11
182.5059977643496
 21
274.1151945932635
 31
0.0
  0
LINE
  5
22B
102
{ACAD_REACTORS
330
2C7
102
}
330
23
100
AcDbEntity
  8
AM_0
  6
Continuous
100
AcDbLine
 10
178.8361216657096
 20
274.1151945932635
 30
0.0
 11
178.8361216657096
 21
214.1151945932635
 31
0.0
  0
LINE
  5
22C
330
23
100
AcDbEntity
  8
AM_0
  6
Continuous
100
AcDbLine
 10
186.8361521832896
 20
266.6151488168935
 30
0.0
 11
182.5060130231296
 21
274.1151793344735
 31
0.0
  0
LINE
  5
22D
330
23
100
AcDbEntity
  8
AM_0
  6
Continuous
100
AcDbLine
 10
208.8361216657096
 20
249.1151945932635
 30
0.0
 11
192.8361216657096
 21
249.1151945932635
 31
0.0
  0
LINE
  5
22E
102
{ACAD_REACTORS
330
2C7
102
}
330
23
100
AcDbEntity
  8
AM_0
  6
Continuous
100
AcDbLine
 10
140.8361064069196
 20
266.6152098520434
 30
0.0
 11
152.8361216657096
 21
266.6152098520434
 31
0.0
  0
LINE
  5
22F
330
23
100
AcDbEntity
  8
AM_4
  6
Continuous
 62
     3
100
AcDbLine
 10
139.9863139264496
 20
265.7652037485335
 30
0.0
 11
152.8361216657096
 21
265.7652037485335
 31
0.0
  0
LINE
  5
230
330
23
100
AcDbEntity
  8
AM_0
  6
Continuous
100
AcDbLine
 10
177.8360911481296
 20
266.6152403696235
 30
0.0
 11
178.8361369244996
 21
265.6151945932635
 31
0.0
  0
LINE
  5
231
330
23
100
AcDbEntity
  8
AM_0
  6
Continuous
100
AcDbLine
 10
69.83610640691961
 20
265.1152098520435
 30
0.0
 11
139.3361064069196
 21
265.1152098520435
 31
0.0
  0
LINE
  5
232
330
23
100
AcDbEntity
  8
AM_0
  6
Continuous
100
AcDbLine
 10
140.8362132184496
 20
266.6150114877935
 30
0.0
 11
139.3362132184496
 21
265.1149962290035
 31
0.0
  0
LINE
  5
233
102
{ACAD_REACTORS
330
2BE
102
}
330
23
100
AcDbEntity
  8
AM_0
  6
Continuous
100
AcDbLine
 10
68.83610640691961
 20
264.1152098520434
 30
0.0
 11
68.83610640691961
 21
224.1151793344735
 31
0.0
  0
LINE
  5
234
330
23
100
AcDbEntity
  8
AM_0
  6
Continuous
100
AcDbLine
 10
186.8361216657096
 20
253.9151976450134
 30
0.0
 11
192.8361216657096
 21
253.9151976450134
 31
0.0
  0
LINE
  5
235
330
23
100
AcDbEntity
  8
AM_0
  6
Continuous
100
AcDbLine
 10
209.8361216657096
 20
258.1151945932635
 30
0.0
 11
220.8361216657096
 21
258.1151945932635
 31
0.0
  0
LINE
  5
236
102
{ACAD_REACTORS
330
2B5
102
}
330
23
100
AcDbEntity
  8
AM_0
  6
Continuous
100
AcDbLine
 10
222.8361216657096
 20
271.6152098520435
 30
0.0
 11
225.8361216657096
 21
271.6152098520435
 31
0.0
  0
LINE
  5
237
330
23
100
AcDbEntity
  8
PV0001_1
  6
Continuous
 62
     4
 48
0.5
100
AcDbLine
 10
63.33616744207962
 20
251.3651945932635
 30
0.0
 11
68.83610640691961
 21
251.3651945932635
 31
0.0
  0
LINE
  5
238
330
23
100
AcDbEntity
  8
AM_0
  6
Continuous
100
AcDbLine
 10
62.33613692449967
 20
252.6423247202135
 30
0.0
 11
68.83613692449967
 21
252.4153349741235
 31
0.0
  0
LINE
  5
239
330
23
100
AcDbEntity
  8
AM_3
  6
ACISOTGL
 62
     6
100
AcDbLine
 10
57.33616744207961
 20
249.6151945932635
 30
0.0
 11
71.19114791082961
 21
249.6151945932635
 31
0.0
  0
LINE
  5
23A
330
23
100
AcDbEntity
  8
AM_0
  6
Continuous
100
AcDbLine
 10
62.33616744207961
 20
255.1151945932635
 30
0.0
 11
62.33616744207961
 21
233.1151945932635
 31
0.0
  0
LINE
  5
23B
330
23
100
AcDbEntity
  8
AM_0
  6
Continuous
100
AcDbLine
 10
57.33616744207961
 20
255.1151945932635
 30
0.0
 11
62.33616744207961
 21
255.1151945932635
 31
0.0
  0
LINE
  5
23C
330
23
100
AcDbEntity
  8
AM_0
  6
Continuous
100
AcDbLine
 10
63.33616744207962
 20
252.6421873911135
 30
0.0
 11
63.33616744207962
 21
235.5882017954035
 31
0.0
  0
LINE
  5
23D
330
23
100
AcDbEntity
  8
AM_3
  6
ACISOTGL
 62
     6
100
AcDbLine
 10
57.33613692449967
 20
250.6953947885735
 30
0.0
 11
68.03614913152955
 21
250.3217375620135
 31
0.0
  0
LINE
  5
23E
330
23
100
AcDbEntity
  8
PV0001_1
  6
AM_ISO08W050
 62
     4
 48
0.5
100
AcDbLine
 10
215.3361216657096
 20
244.1151945932635
 30
0.0
 11
215.3361216657096
 21
248.6086180551735
 31
0.0
  0
LINE
  5
23F
330
23
100
AcDbEntity
  8
AM_0
  6
Continuous
100
AcDbLine
 10
215.3362437360296
 20
244.1150725229435
 30
0.0
 11
216.6352702252796
 21
244.8650725229435
 31
0.0
  0
LINE
  5
240
330
23
100
AcDbEntity
  8
AM_0
  6
Continuous
100
AcDbLine
 10
215.3361369244997
 20
244.1151182993135
 30
0.0
 11
214.0371104352396
 21
244.8651182993135
 31
0.0
  0
LINE
  5
241
330
23
100
AcDbEntity
  8
AM_0
  6
Continuous
100
AcDbLine
 10
215.3361216657096
 20
244.1151945932635
 30
0.0
 11
215.3361216657096
 21
245.6151945932635
 31
0.0
  0
LINE
  5
242
102
{ACAD_REACTORS
330
2CC
102
}
330
23
100
AcDbEntity
  8
AM_0
  6
Continuous
100
AcDbLine
 10
162.8361216657095
 20
276.3651945932635
 30
0.0
 11
162.8361216657095
 21
211.8651945932635
 31
0.0
  0
LINE
  5
243
330
23
100
AcDbEntity
  8
AM_0
  6
Continuous
100
AcDbLine
 10
152.8361216657096
 20
272.3651945932635
 30
0.0
 11
152.8361216657096
 21
215.8651945932635
 31
0.0
  0
LINE
  5
244
102
{ACAD_REACTORS
330
2C1
102
}
330
23
100
AcDbEntity
  8
AM_0
  6
Continuous
100
AcDbLine
 10
178.8361216657096
 20
214.1151945932635
 30
0.0
 11
182.5059977643496
 21
214.1151945932635
 31
0.0
  0
LINE
  5
245
102
{ACAD_REACTORS
330
2C1
102
}
330
23
100
AcDbEntity
  8
AM_0
  6
Continuous
100
AcDbLine
 10
186.8361216657096
 20
221.6151945932635
 30
0.0
 11
186.8361216657096
 21
266.6152098520434
 31
0.0
  0
LINE
  5
246
102
{ACAD_REACTORS
330
2B8
102
}
330
23
100
AcDbEntity
  8
AM_0
  6
Continuous
100
AcDbLine
 10
186.8360606305596
 20
221.6151640756835
 30
0.0
 11
182.5059367291896
 21
214.1151640756835
 31
0.0
  0
LINE
  5
247
330
23
100
AcDbEntity
  8
AM_0
  6
Continuous
100
AcDbLine
 10
208.8361216657096
 20
239.1151945932635
 30
0.0
 11
192.8361216657096
 21
239.1151945932635
 31
0.0
  0
LINE
  5
248
330
23
100
AcDbEntity
  8
AM_0
  6
Continuous
100
AcDbLine
 10
140.8361064069196
 20
221.6151945932635
 30
0.0
 11
152.8361216657096
 21
221.6151945932635
 31
0.0
  0
LINE
  5
249
330
23
100
AcDbEntity
  8
AM_4
  6
Continuous
 62
     3
100
AcDbLine
 10
139.9861003034095
 20
222.4651854379835
 30
0.0
 11
152.8361216657096
 21
222.4651854379835
 31
0.0
  0
LINE
  5
24A
330
23
100
AcDbEntity
  8
AM_0
  6
Continuous
100
AcDbLine
 10
177.8357401959896
 20
221.6155455454035
 30
0.0
 11
178.8361369244996
 21
222.6159117563435
 31
0.0
  0
LINE
  5
24B
330
23
100
AcDbEntity
  8
AM_0
  6
Continuous
100
AcDbLine
 10
69.83610640691961
 20
223.1151793344735
 30
0.0
 11
139.3361064069196
 21
223.1151793344735
 31
0.0
  0
LINE
  5
24C
330
23
100
AcDbEntity
  8
AM_0
  6
Continuous
100
AcDbLine
 10
140.8360606305596
 20
221.6152251108335
 30
0.0
 11
139.3360453717696
 21
223.1152403696235
 31
0.0
  0
LINE
  5
24D
330
23
100
AcDbEntity
  8
AM_0
  6
Continuous
100
AcDbLine
 10
186.8361216657096
 20
234.3151915415035
 30
0.0
 11
192.8361216657096
 21
234.3151915415035
 31
0.0
  0
LINE
  5
24E
330
23
100
AcDbEntity
  8
AM_0
  6
Continuous
100
AcDbLine
 10
192.8361216657096
 20
234.3151915415035
 30
0.0
 11
192.8361216657096
 21
253.9151976450134
 31
0.0
  0
LINE
  5
24F
330
23
100
AcDbEntity
  8
AM_0
  6
Continuous
100
AcDbLine
 10
209.8361216657096
 20
230.1151945932635
 30
0.0
 11
220.8361216657096
 21
230.1151945932635
 31
0.0
  0
LINE
  5
250
330
23
100
AcDbEntity
  8
AM_0
  6
Continuous
100
AcDbLine
 10
208.8361216657096
 20
257.1151945932635
 30
0.0
 11
208.8361216657096
 21
231.1151945932635
 31
0.0
  0
LINE
  5
251
330
23
100
AcDbEntity
  8
AM_0
  6
Continuous
100
AcDbLine
 10
220.8361216657096
 20
269.6152098520435
 30
0.0
 11
220.8361216657096
 21
218.6151945932635
 31
0.0
  0
LINE
  5
252
330
23
100
AcDbEntity
  8
AM_0
  6
Continuous
100
AcDbLine
 10
222.8361216657096
 20
216.6151945932635
 30
0.0
 11
225.8361216657096
 21
216.6151945932635
 31
0.0
  0
LINE
  5
253
330
23
100
AcDbEntity
  8
AM_0
  6
Continuous
100
AcDbLine
 10
227.8361216657096
 20
269.6152098520435
 30
0.0
 11
227.8361216657096
 21
218.6151945932635
 31
0.0
  0
LINE
  5
254
330
23
100
AcDbEntity
  8
PV0001_1
  6
Continuous
 62
     4
 48
0.5
100
AcDbLine
 10
63.33616744207962
 20
236.8651945932635
 30
0.0
 11
68.83610640691961
 21
236.8651945932635
 31
0.0
  0
LINE
  5
255
330
23
100
AcDbEntity
  8
AM_0
  6
Continuous
100
AcDbLine
 10
62.33607588934956
 20
235.5883391245135
 30
0.0
 11
68.83610640691961
 21
235.8153288706035
 31
0.0
  0
LINE
  5
256
330
23
100
AcDbEntity
  8
AM_3
  6
ACISOTGL
 62
     6
100
AcDbLine
 10
57.33616744207961
 20
238.6151945932635
 30
0.0
 11
71.19114791082961
 21
238.6151945932635
 31
0.0
  0
LINE
  5
257
330
23
100
AcDbEntity
  8
AM_3
  6
ACISOTGL
 62
     6
100
AcDbLine
 10
68.03611861394961
 20
237.7866270883735
 30
0.0
 11
68.03611861394961
 21
250.3216002329035
 31
0.0
  0
LINE
  5
258
330
23
100
AcDbEntity
  8
AM_0
  6
Continuous
100
AcDbLine
 10
57.33616744207961
 20
233.1151945932635
 30
0.0
 11
57.33616744207961
 21
255.1151945932635
 31
0.0
  0
LINE
  5
259
330
23
100
AcDbEntity
  8
AM_0
  6
Continuous
100
AcDbLine
 10
57.33616744207961
 20
233.1151945932635
 30
0.0
 11
62.33616744207961
 21
233.1151945932635
 31
0.0
  0
LINE
  5
25A
330
23
100
AcDbEntity
  8
AM_3
  6
ACISOTGL
 62
     6
100
AcDbLine
 10
57.33607588934956
 20
237.5353758676735
 30
0.0
 11
68.03605757879961
 21
237.9090330942335
 31
0.0
  0
LINE
  5
25B
330
23
100
AcDbEntity
  8
PV0001_1
  6
AM_ISO08W050
 62
     4
 48
0.5
100
AcDbLine
 10
215.3361216657096
 20
244.1151945932635
 30
0.0
 11
215.3361216657096
 21
239.6217711313435
 31
0.0
  0
LINE
  5
25C
330
23
100
AcDbEntity
  8
AM_0
  6
Continuous
100
AcDbLine
 10
215.3361369244997
 20
244.1151182993135
 30
0.0
 11
216.6351786725496
 21
243.3651182993135
 31
0.0
  0
LINE
  5
25D
330
23
100
AcDbEntity
  8
AM_0
  6
Continuous
100
AcDbLine
 10
215.3362437360296
 20
244.1150725229435
 30
0.0
 11
214.0372019879797
 21
243.3650725229435
 31
0.0
  0
LINE
  5
25E
330
23
100
AcDbEntity
  8
AM_0
  6
Continuous
100
AcDbLine
 10
215.3361216657096
 20
244.1151945932635
 30
0.0
 11
215.3361216657096
 21
242.6151945932635
 31
0.0
  0
LINE
  5
25F
330
23
100
AcDbEntity
  8
AM_7
 62
     4
100
AcDbLine
 10
117.8361064069196
 20
220.6303923471635
 30
0.0
 11
117.8361064069196
 21
238.2938902719735
 31
0.0
  0
LINE
  5
260
330
23
100
AcDbEntity
  8
AM_3
  6
ACISOTGL
 62
     6
100
AcDbLine
 10
123.3361064069196
 20
223.1151793344735
 30
0.0
 11
123.3361064069196
 21
233.3151915415035
 31
0.0
  0
LINE
  5
261
330
23
100
AcDbEntity
  8
AM_3
  6
ACISOTGL
 62
     6
100
AcDbLine
 10
112.3361064069196
 20
223.1151793344735
 30
0.0
 11
112.3361064069196
 21
233.3151915415035
 31
0.0
  0
LINE
  5
262
330
23
100
AcDbEntity
  8
AM_3
  6
ACISOTGL
 62
     6
100
AcDbLine
 10
111.2564250104396
 20
223.1151793344735
 30
0.0
 11
111.6126261823096
 21
233.3151762827135
 31
0.0
  0
LINE
  5
263
330
23
100
AcDbEntity
  8
AM_3
  6
ACISOTGL
 62
     6
100
AcDbLine
 10
124.4156046979396
 20
223.1151945932635
 30
0.0
 11
124.0594340436396
 21
233.3151915415035
 31
0.0
  0
LINE
  5
264
330
23
100
AcDbEntity
  8
AM_0
  6
Continuous
100
AcDbLine
 10
57.33616744207961
 20
249.6151945932635
 30
0.0
 11
62.33616744207961
 21
249.6151945932635
 31
0.0
  0
LINE
  5
265
330
23
100
AcDbEntity
  8
AM_0
  6
Continuous
100
AcDbLine
 10
57.33616744207961
 20
238.6151945932635
 30
0.0
 11
62.33616744207961
 21
238.6151945932635
 31
0.0
  0
LINE
  5
266
330
23
100
AcDbEntity
  8
AM_0
  6
Continuous
100
AcDbLine
 10
162.8361216657095
 20
266.6152098520434
 30
0.0
 11
177.8361216657096
 21
266.6152098520434
 31
0.0
  0
LINE
  5
267
330
23
100
AcDbEntity
  8
AM_4
  6
Continuous
 62
     3
100
AcDbLine
 10
162.8361216657095
 20
265.7652037485335
 30
0.0
 11
178.6861277692296
 21
265.7652037485335
 31
0.0
  0
LINE
  5
268
330
23
100
AcDbEntity
  8
AM_4
  6
Continuous
 62
     3
100
AcDbLine
 10
162.8361216657095
 20
222.4651854379835
 30
0.0
 11
178.6861277692296
 21
222.4651854379835
 31
0.0
  0
LINE
  5
269
330
23
100
AcDbEntity
  8
AM_0
  6
Continuous
100
AcDbLine
 10
162.8361216657095
 20
221.6151945932635
 30
0.0
 11
177.8361216657096
 21
221.6151945932635
 31
0.0
  0
LINE
  5
26A
330
23
100
AcDbEntity
  8
AM_0
  6
Continuous
100
AcDbLine
 10
182.5060130231296
 20
274.1152098520434
 30
0.0
 11
182.5060130231296
 21
214.1151945932635
 31
0.0
  0
LINE
  5
26B
330
23
100
AcDbEntity
  8
AM_0
  6
Continuous
100
AcDbLine
 10
177.8360911481296
 20
266.6152403696235
 30
0.0
 11
177.8360911481296
 21
221.6151945932635
 31
0.0
  0
LINE
  5
26C
330
23
100
AcDbEntity
  8
AM_0
  6
Continuous
100
AcDbLine
 10
140.8361064069196
 20
266.6151640756835
 30
0.0
 11
140.8361064069196
 21
221.6151945932635
 31
0.0
  0
LINE
  5
26D
330
23
100
AcDbEntity
  8
AM_0
  6
Continuous
100
AcDbLine
 10
139.3361064069196
 20
265.1151640756835
 30
0.0
 11
139.3361064069196
 21
223.1151793344735
 31
0.0
  0
LINE
  5
26E
330
23
100
AcDbEntity
  8
AM_7
 62
     4
100
AcDbLine
 10
56.43257247137967
 20
244.1151945932635
 30
0.0
 11
231.5585337750896
 21
244.1151945932635
 31
0.0
  0
LINE
  5
26F
330
23
100
AcDbEntity
  8
AM_7
 62
     4
100
AcDbLine
 10
311.3361216657076
 20
279.6151945932635
 30
0.0
 11
311.3361216657076
 21
208.6151945932635
 31
0.0
  0
LINE
  5
270
330
23
100
AcDbEntity
  8
AM_7
 62
     4
100
AcDbLine
 10
275.8361216657096
 20
244.1151945932635
 30
0.0
 11
346.8361216657076
 21
244.1151945932635
 31
0.0
  0
LINE
  5
271
330
23
100
AcDbEntity
  8
AM_0
  6
Continuous
100
AcDbLine
 10
281.3361216657096
 20
247.1152098520434
 30
0.0
 11
278.9748850934496
 21
247.1152098520434
 31
0.0
  0
LINE
  5
272
330
23
100
AcDbEntity
  8
AM_0
  6
Continuous
100
AcDbLine
 10
281.3361216657096
 20
241.1152098520435
 30
0.0
 11
278.9748850934496
 21
241.1152098520435
 31
0.0
  0
LINE
  5
273
330
23
100
AcDbEntity
  8
AM_0
  6
Continuous
100
AcDbLine
 10
281.3361369244997
 20
247.1151945932635
 30
0.0
 11
281.3361369244997
 21
241.1151945932635
 31
0.0
  0
LINE
  5
274
330
23
100
AcDbEntity
  8
AM_0
  6
Continuous
100
AcDbLine
 10
153.9908305280196
 20
241.1151945932635
 30
0.0
 11
162.8361216657095
 21
241.1151945932635
 31
0.0
  0
LINE
  5
275
330
23
100
AcDbEntity
  8
AM_0
  6
Continuous
100
AcDbLine
 10
153.9908305280196
 20
247.1151945932635
 30
0.0
 11
162.8361216657095
 21
247.1151945932635
 31
0.0
  0
LINE
  5
276
330
23
100
AcDbEntity
  8
AM_3
  6
ACISOTGL
 62
     6
100
AcDbLine
 10
153.9908305280196
 20
214.1151945932635
 30
0.0
 11
162.8361216657095
 21
214.1151945932635
 31
0.0
  0
LINE
  5
277
330
23
100
AcDbEntity
  8
AM_3
  6
ACISOTGL
 62
     6
100
AcDbLine
 10
153.9908305280196
 20
274.1151945932635
 30
0.0
 11
162.8361216657095
 21
274.1151945932635
 31
0.0
  0
LINE
  5
278
330
23
100
AcDbEntity
  8
AM_0
  6
Continuous
100
AcDbLine
 10
155.4342051618096
 20
211.6151945932635
 30
0.0
 11
162.8361216657095
 21
211.6151945932635
 31
0.0
  0
LINE
  5
279
330
23
100
AcDbEntity
  8
AM_0
  6
Continuous
100
AcDbLine
 10
155.4342051618096
 20
276.6151945932635
 30
0.0
 11
162.8361216657095
 21
276.6151945932635
 31
0.0
  0
LINE
  5
27A
330
23
100
AcDbEntity
  8
AM_0
  6
Continuous
100
AcDbLine
 10
152.8361064069196
 20
272.1152098520434
 30
0.0
 11
155.4341899030196
 21
276.6151945932635
 31
0.0
  0
LINE
  5
27B
102
{ACAD_REACTORS
330
2B2
330
2CC
102
}
330
23
100
AcDbEntity
  8
AM_0
  6
Continuous
100
AcDbLine
 10
152.8361369244996
 20
216.1151488168935
 30
0.0
 11
155.4342051618096
 21
211.6151640756835
 31
0.0
  0
LINE
  5
27C
330
23
100
AcDbEntity
  8
AM_0
  6
Continuous
100
AcDbLine
 10
153.9908305280196
 20
241.1151945932635
 30
0.0
 11
153.9908305280196
 21
247.1151945932635
 31
0.0
  0
LINE
  5
27D
330
23
100
AcDbEntity
  8
AM_0
  6
Continuous
100
AcDbLine
 10
155.4342051618096
 20
211.6151945932635
 30
0.0
 11
155.4342051618096
 21
241.1151945932635
 31
0.0
  0
LINE
  5
27E
102
{ACAD_REACTORS
330
2B2
102
}
330
23
100
AcDbEntity
  8
AM_0
  6
Continuous
100
AcDbLine
 10
155.4342051618096
 20
276.6151945932635
 30
0.0
 11
155.4342051618096
 21
247.1151945932635
 31
0.0
  0
LINE
  5
27F
330
23
100
AcDbEntity
  8
AM_0
  6
Continuous
100
AcDbLine
 10
308.3361140363136
 20
214.1151793344735
 30
0.0
 11
308.3361140363136
 21
211.7539427622035
 31
0.0
  0
LINE
  5
280
330
23
100
AcDbEntity
  8
AM_0
  6
Continuous
100
AcDbLine
 10
308.3361216657077
 20
214.1151945932635
 30
0.0
 11
314.3361216657077
 21
214.1151945932635
 31
0.0
  0
LINE
  5
281
330
23
100
AcDbEntity
  8
AM_0
  6
Continuous
100
AcDbLine
 10
314.3361216657077
 20
214.1151793344735
 30
0.0
 11
314.3361216657077
 21
211.7539427622035
 31
0.0
  0
LINE
  5
282
330
23
100
AcDbEntity
  8
AM_0
  6
Continuous
100
AcDbLine
 10
341.3361369244966
 20
241.1151793344735
 30
0.0
 11
343.6973734967626
 21
241.1151793344735
 31
0.0
  0
LINE
  5
283
330
23
100
AcDbEntity
  8
AM_0
  6
Continuous
100
AcDbLine
 10
341.3361292951027
 20
241.1151793344735
 30
0.0
 11
341.3361292951027
 21
247.1151793344735
 31
0.0
  0
LINE
  5
284
330
23
100
AcDbEntity
  8
AM_0
  6
Continuous
100
AcDbLine
 10
341.3361369244966
 20
247.1151793344735
 30
0.0
 11
343.6973734967626
 21
247.1151793344735
 31
0.0
  0
LINE
  5
285
330
23
100
AcDbEntity
  8
AM_0
  6
Continuous
100
AcDbLine
 10
314.3361445538916
 20
274.1151945932635
 30
0.0
 11
314.3361445538916
 21
276.4764311655235
 31
0.0
  0
LINE
  5
286
330
23
100
AcDbEntity
  8
AM_0
  6
Continuous
100
AcDbLine
 10
314.3361369244966
 20
274.1151945932635
 30
0.0
 11
308.3361369244966
 21
274.1151945932635
 31
0.0
  0
LINE
  5
287
330
23
100
AcDbEntity
  8
AM_0
  6
Continuous
100
AcDbLine
 10
308.3361445538916
 20
274.1151945932635
 30
0.0
 11
308.3361445538916
 21
276.4764311655235
 31
0.0
  0
LINE
  5
288
330
23
100
AcDbEntity
  8
AM_0
  6
Continuous
100
AcDbLine
 10
69.83613692449967
 20
265.1151793344735
 30
0.0
 11
68.83613692449967
 21
264.1151793344735
 31
0.0
  0
LINE
  5
289
102
{ACAD_REACTORS
330
2BB
330
2C4
102
}
330
23
100
AcDbEntity
  8
AM_0
  6
Continuous
100
AcDbLine
 10
68.83613692449967
 20
224.1151793344735
 30
0.0
 11
69.83610640691961
 21
223.1151945932635
 31
0.0
  0
LINE
  5
28A
102
{ACAD_REACTORS
330
2AF
102
}
330
23
100
AcDbEntity
  8
AM_0
  6
Continuous
100
AcDbLine
 10
69.83610640691961
 20
223.1151793344735
 30
0.0
 11
69.83610640691961
 21
265.1152098520435
 31
0.0
  0
LINE
  5
28B
330
23
100
AcDbEntity
  8
AM_0
  6
Continuous
100
AcDbLine
 10
186.8361216657096
 20
239.2152006967735
 30
0.0
 11
192.8361216657096
 21
239.2152006967735
 31
0.0
  0
LINE
  5
28C
330
23
100
AcDbEntity
  8
AM_0
  6
Continuous
100
AcDbLine
 10
186.8361216657096
 20
249.0151884897435
 30
0.0
 11
192.8361216657096
 21
249.0151884897435
 31
0.0
  0
LINE
  5
28D
330
23
100
AcDbEntity
  8
AM_4
  6
Continuous
 62
     3
100
AcDbLine
 10
208.8361216657096
 20
239.8651945932635
 30
0.0
 11
192.8361216657096
 21
239.8651945932635
 31
0.0
  0
LINE
  5
28E
330
23
100
AcDbEntity
  8
AM_4
  6
Continuous
 62
     3
100
AcDbLine
 10
208.8361216657096
 20
248.3651945932635
 30
0.0
 11
192.8361216657096
 21
248.3651945932635
 31
0.0
  0
ARC
  5
28F
330
23
100
AcDbEntity
  8
AM_0
  6
Continuous
100
AcDbCircle
 10
209.8361216657096
 20
257.1151945932635
 30
0.0
 40
1.0
100
AcDbArc
 50
89.99998201391097
 51
179.9999640278186
  0
CIRCLE
  5
290
330
23
100
AcDbEntity
  8
AM_4
  6
Continuous
 62
     3
100
AcDbCircle
 10
215.3361216657096
 20
244.1151945932635
 30
0.0
 40
2.5
  0
ARC
  5
291
330
23
100
AcDbEntity
  8
AM_0
  6
Continuous
100
AcDbCircle
 10
209.8361216657096
 20
231.1151945932635
 30
0.0
 40
1.0
100
AcDbArc
 50
179.9999776882002
 51
269.9999733624863
  0
CIRCLE
  5
292
330
23
100
AcDbEntity
  8
AM_0
  6
Continuous
100
AcDbCircle
 10
215.3361216657096
 20
244.1151945932635
 30
0.0
 40
3.0
  0
ARC
  5
293
330
23
100
AcDbEntity
  8
AM_0
  6
Continuous
100
AcDbCircle
 10
311.3361216657076
 20
244.1151945932635
 30
0.0
 40
32.5
100
AcDbArc
 50
5.296353651785177
 51
84.70358012391832
  0
ARC
  5
294
330
23
100
AcDbEntity
  8
AM_0
  6
Continuous
100
AcDbCircle
 10
311.3361216657076
 20
244.1151945932635
 30
0.0
 40
27.5
100
AcDbArc
 50
14.27633162956469
 51
30.72364230191531
  0
CIRCLE
  5
295
330
23
100
AcDbEntity
  8
AM_0
  6
Continuous
100
AcDbCircle
 10
311.3361216657076
 20
244.1151945932635
 30
0.0
 40
30.0
  0
CIRCLE
  5
296
330
23
100
AcDbEntity
  8
AM_0
  6
Continuous
100
AcDbCircle
 10
311.3361216657076
 20
244.1151945932635
 30
0.0
 40
20.0
  0
ARC
  5
297
330
23
100
AcDbEntity
  8
AM_0
  6
Continuous
100
AcDbCircle
 10
335.3777400128756
 20
220.0735533579035
 30
0.0
 40
10.0
100
AcDbArc
 50
92.30105225471898
 51
177.6989279379567
  0
ARC
  5
298
330
23
100
AcDbEntity
  8
AM_0
  6
Continuous
100
AcDbCircle
 10
345.3361216657076
 20
244.1151945932635
 30
0.0
 40
10.0
100
AcDbArc
 50
137.3010500918645
 51
222.6989326052905
  0
ARC
  5
299
330
23
100
AcDbEntity
  8
AM_0
  6
Continuous
100
AcDbCircle
 10
335.3777552716647
 20
268.1568205698235
 30
0.0
 40
10.0
100
AcDbArc
 50
182.3010720620433
 51
267.6989545754702
  0
ARC
  5
29A
330
23
100
AcDbEntity
  8
AM_0
  6
Continuous
100
AcDbCircle
 10
311.3361292951026
 20
278.1151945932635
 30
0.0
 40
10.0
100
AcDbArc
 50
227.3010630689952
 51
312.6989524126149
  0
ARC
  5
29B
330
23
100
AcDbEntity
  8
AM_0
  6
Continuous
100
AcDbCircle
 10
287.2944956891496
 20
268.1568358286134
 30
0.0
 40
10.0
100
AcDbArc
 50
272.3010609061401
 51
357.6989502497597
  0
ARC
  5
29C
330
23
100
AcDbEntity
  8
AM_0
  6
Continuous
100
AcDbCircle
 10
277.3361216657096
 20
244.1152098520435
 30
0.0
 40
10.0
100
AcDbArc
 50
317.3010587432873
 51
42.6989480869023
  0
ARC
  5
29D
330
23
100
AcDbEntity
  8
AM_0
  6
Continuous
100
AcDbCircle
 10
287.2944804303596
 20
220.0735686166935
 30
0.0
 40
10.0
100
AcDbArc
 50
2.301056580429539
 51
87.69894592404915
  0
ARC
  5
29E
330
23
100
AcDbEntity
  8
AM_0
  6
Continuous
100
AcDbCircle
 10
311.3361064069186
 20
210.1151945932635
 30
0.0
 40
10.0
100
AcDbArc
 50
47.30105441757584
 51
132.6989369310047
  0
ARC
  5
29F
330
23
100
AcDbEntity
  8
AM_0
  6
Continuous
100
AcDbCircle
 10
311.3361216657076
 20
244.1151945932635
 30
0.0
 40
27.5
100
AcDbArc
 50
329.2763235471392
 51
345.7236752006207
  0
ARC
  5
2A0
330
23
100
AcDbEntity
  8
AM_0
  6
Continuous
100
AcDbCircle
 10
311.3361216657076
 20
244.1151945932635
 30
0.0
 40
27.5
100
AcDbArc
 50
284.276315464713
 51
300.7236432125306
  0
ARC
  5
2A1
330
23
100
AcDbEntity
  8
AM_0
  6
Continuous
100
AcDbCircle
 10
311.3361216657076
 20
244.1151945932635
 30
0.0
 40
27.5
100
AcDbArc
 50
239.2762971369958
 51
255.7236180546297
  0
ARC
  5
2A2
330
23
100
AcDbEntity
  8
AM_0
  6
Continuous
100
AcDbCircle
 10
311.3361216657076
 20
244.1151945932635
 30
0.0
 40
27.5
100
AcDbArc
 50
194.2762788092826
 51
210.723620217484
  0
ARC
  5
2A3
330
23
100
AcDbEntity
  8
AM_0
  6
Continuous
100
AcDbCircle
 10
311.3361216657076
 20
244.1151945932635
 30
0.0
 40
27.5
100
AcDbArc
 50
149.2763388013766
 51
165.7236528888241
  0
ARC
  5
2A4
330
23
100
AcDbEntity
  8
AM_0
  6
Continuous
100
AcDbCircle
 10
311.3361216657076
 20
244.1151945932635
 30
0.0
 40
27.5
100
AcDbArc
 50
104.2763477944208
 51
120.7236755422445
  0
ARC
  5
2A5
330
23
100
AcDbEntity
  8
AM_0
  6
Continuous
100
AcDbCircle
 10
311.3361216657076
 20
244.1151945932635
 30
0.0
 40
27.5
100
AcDbArc
 50
59.27632946670789
 51
75.72365038434593
  0
ARC
  5
2A6
330
23
100
AcDbEntity
  8
AM_0
  6
Continuous
100
AcDbCircle
 10
311.3361216657076
 20
244.1151945932635
 30
0.0
 40
32.5
100
AcDbArc
 50
275.2963788949476
 51
354.7035981100018
  0
ARC
  5
2A7
330
23
100
AcDbEntity
  8
AM_0
  6
Continuous
100
AcDbCircle
 10
311.3361216657076
 20
244.1151945932635
 30
0.0
 40
32.5
100
AcDbArc
 50
185.2963285791464
 51
264.7035887753407
  0
ARC
  5
2A8
330
23
100
AcDbEntity
  8
AM_0
  6
Continuous
100
AcDbCircle
 10
311.3361216657076
 20
244.1151945932635
 30
0.0
 40
32.5
100
AcDbArc
 50
95.29636341333757
 51
174.7036167793397
  0
ARC
  5
2A9
330
23
100
AcDbEntity
  8
AM_0
  6
Continuous
100
AcDbCircle
 10
222.8361216657096
 20
269.6152098520435
 30
0.0
 40
2.0
100
AcDbArc
 50
89.99998201391097
 51
179.9999640278186
  0
ARC
  5
2AA
330
23
100
AcDbEntity
  8
AM_0
  6
Continuous
100
AcDbCircle
 10
222.8361216657096
 20
218.6151945932635
 30
0.0
 40
2.0
100
AcDbArc
 50
179.9999776882002
 51
270.0000280039997
  0
ARC
  5
2AB
102
{ACAD_REACTORS
330
2C4
102
}
330
23
100
AcDbEntity
  8
AM_0
  6
Continuous
100
AcDbCircle
 10
225.8361216657096
 20
218.6151945932635
 30
0.0
 40
2.0
100
AcDbArc
 50
270.0000179860891
 51
0.0
  0
ARC
  5
2AC
330
23
100
AcDbEntity
  8
AM_0
  6
Continuous
100
AcDbCircle
 10
225.8361216657096
 20
269.6152098520435
 30
0.0
 40
2.0
100
AcDbArc
 50
0.0
 51
89.99998201391097
  0
DIMENSION
  5
2AD
102
{ACAD_XDICTIONARY
360
2AE
102
}
102
{ACAD_REACTORS
330
2AF
102
}
330
23
100
AcDbEntity
  8
AM_5
100
AcDbDimension
  2
*D14
 10
41.33616744207964
 20
223.1151793344735
 30
0.0
 11
38.55190348268875
 21
244.1151945932585
 31
0.0
 70
    32
  1
φ<>
 71
     5
 42
42.00003051756993
  3
AM_ISO$0
100
AcDbAlignedDimension
 13
69.83610640691961
 23
265.1152098520435
 33
0.0
 14
69.83610640691961
 24
223.1151793344735
 34
0.0
 50
90.0
100
AcDbRotatedDimension
1001
ACAD
1000
DSTYLE
1002
{
1070
    40
1040
1.0
1070
   144
1040
1.0
1002
}
  0
DIMENSION
  5
2B0
102
{ACAD_XDICTIONARY
360
2B1
102
}
102
{ACAD_REACTORS
330
2B2
102
}
330
23
100
AcDbEntity
  8
AM_5
100
AcDbDimension
  2
*D15
 10
33.33616744207964
 20
211.6151640756835
 30
0.0
 11
30.55190348268875
 21
244.1151793344735
 31
0.0
 70
    32
  1
φ<>
 71
     5
 42
65.00003051758003
  3
AM_ISO$0
100
AcDbAlignedDimension
 13
155.4342051618096
 23
276.6151945932635
 33
0.0
 14
155.4342051618096
 24
211.6151640756835
 34
0.0
 50
90.0
100
AcDbRotatedDimension
1001
ACAD
1000
DSTYLE
1002
{
1070
    40
1040
1.0
1070
   144
1040
1.0
1002
}
  0
DIMENSION
  5
2B3
102
{ACAD_XDICTIONARY
360
2B4
102
}
102
{ACAD_REACTORS
330
2B5
102
}
330
23
100
AcDbEntity
  8
AM_5
100
AcDbDimension
  2
*D16
 10
244.3791972272397
 20
216.6151945932635
 30
0.0
 11
241.5949332678488
 21
244.1152022226535
 31
0.0
 70
    32
  1
φ<>
 71
     5
 42
55.00001525877997
  3
AM_ISO$0
100
AcDbAlignedDimension
 13
225.8361216657096
 23
271.6152098520435
 33
0.0
 14
225.8361216657096
 24
216.6151945932635
 34
0.0
 50
90.0
100
AcDbRotatedDimension
1001
ACAD
1000
DSTYLE
1002
{
1070
    40
1040
1.0
1070
   144
1040
1.0
1002
}
  0
DIMENSION
  5
2B6
102
{ACAD_XDICTIONARY
360
2B7
102
}
102
{ACAD_REACTORS
330
2B8
102
}
330
23
100
AcDbEntity
  8
AM_5
100
AcDbDimension
  2
*D17
 10
252.3791972272397
 20
274.1151945932635
 30
0.0
 11
249.5949332678488
 21
244.1151793344735
 31
0.0
 70
    32
  1
φ<>
 71
     5
 42
60.00003051758003
  3
AM_ISO$0
100
AcDbAlignedDimension
 13
182.5059367291896
 23
214.1151640756835
 33
0.0
 14
182.5059367291896
 24
274.1151945932635
 34
0.0
 50
90.0
100
AcDbRotatedDimension
1001
ACAD
1000
DSTYLE
1002
{
1070
    40
1040
1.0
1070
   144
1040
1.0
1002
}
  0
DIMENSION
  5
2B9
102
{ACAD_XDICTIONARY
360
2BA
102
}
102
{ACAD_REACTORS
330
2BB
102
}
330
23
100
AcDbEntity
  8
AM_5
100
AcDbDimension
  2
*D18
 10
117.8361064069196
 20
196.2190154329395
 30
0.0
 11
87.74904369520777
 21
196.2190154329395
 31
0.0
 70
   160
 71
     5
 42
48.99996948241994
  3
AM_ISO$0
100
AcDbAlignedDimension
 13
68.83613692449967
 23
224.1151793344735
 33
0.0
 14
117.8361064069196
 24
220.6303923471635
 34
0.0
100
AcDbRotatedDimension
1001
ACAD
1000
DSTYLE
1002
{
1070
    40
1040
1.0
1070
   144
1040
1.0
1002
}
  0
DIMENSION
  5
2BC
102
{ACAD_XDICTIONARY
360
2BD
102
}
102
{ACAD_REACTORS
330
2BE
102
}
330
23
100
AcDbEntity
  8
AM_5
100
AcDbDimension
  2
*D19
 10
178.8361216657096
 20
187.8651945932637
 30
0.0
 11
123.8361140363146
 21
190.3651945932637
 31
0.0
 70
    32
 71
     5
 42
110.0000152587899
  3
AM_ISO$0
100
AcDbAlignedDimension
 13
68.83610640691961
 23
224.1151793344735
 33
0.0
 14
178.8361216657096
 24
214.4914250116507
 34
0.0
100
AcDbRotatedDimension
1001
ACAD
1000
DSTYLE
1002
{
1070
    40
1040
1.0
1070
   144
1040
1.0
1002
}
  0
DIMENSION
  5
2BF
102
{ACAD_XDICTIONARY
360
2C0
102
}
102
{ACAD_REACTORS
330
2C1
102
}
330
23
100
AcDbEntity
  8
AM_5
100
AcDbDimension
  2
*D20
 10
186.8361216657096
 20
187.8651945932637
 30
0.0
 11
182.8361216657096
 21
190.3651945932637
 31
0.0
 70
    32
 71
     5
 42
8.0
  3
AM_ISO$0
100
AcDbAlignedDimension
 13
178.8361216657096
 23
214.1151945932635
 33
0.0
 14
186.8361216657096
 24
221.6151945932635
 34
0.0
100
AcDbRotatedDimension
1001
ACAD
1000
DSTYLE
1002
{
1070
    40
1040
1.0
1070
   144
1040
1.0
1002
}
  0
DIMENSION
  5
2C2
102
{ACAD_XDICTIONARY
360
2C3
102
}
102
{ACAD_REACTORS
330
2C4
102
}
330
23
100
AcDbEntity
  8
AM_5
100
AcDbDimension
  2
*D21
 10
227.8361216657096
 20
179.8651945932637
 30
0.0
 11
148.3361292951046
 21
182.3651945932637
 31
0.0
 70
    32
  1
MAX.<>
 71
     5
 42
158.9999847412099
  3
AM_ISO$0
100
AcDbAlignedDimension
 13
68.83613692449967
 23
224.1151793344735
 33
0.0
 14
227.8361216657096
 24
218.6151945932635
 34
0.0
100
AcDbRotatedDimension
1001
ACAD
1000
DSTYLE
1002
{
1070
    40
1040
1.0
1070
   144
1040
1.0
1002
}
  0
DIMENSION
  5
2C5
102
{ACAD_XDICTIONARY
360
2C6
102
}
102
{ACAD_REACTORS
330
2C7
102
}
330
23
100
AcDbEntity
  8
AM_5
100
AcDbDimension
  2
*D22
 10
178.8361216657096
 20
291.6151945932634
 30
0.0
 11
159.8361140363146
 21
294.1151945932634
 31
0.0
 70
    32
 71
     5
 42
38.00001525878997
  3
AM_ISO$0
100
AcDbAlignedDimension
 13
140.8361064069196
 23
266.6152098520434
 33
0.0
 14
178.8361216657096
 24
274.1151945932635
 34
0.0
100
AcDbRotatedDimension
1001
ACAD
1000
DSTYLE
1002
{
1070
    40
1040
1.0
1070
   144
1040
1.0
1002
}
  0
INSERT
  5
2C8
330
23
100
AcDbEntity
  8
AM_5
100
AcDbBlockReference
  2
*S51
 10
0.0
 20
0.0
 30
0.0
  0
INSERT
  5
2C9
330
23
100
AcDbEntity
  8
AM_5
100
AcDbBlockReference
  2
*S52
 10
0.0
 20
0.0
 30
0.0
  0
DIMENSION
  5
2CA
102
{ACAD_XDICTIONARY
360
2CB
102
}
102
{ACAD_REACTORS
330
2CC
102
}
330
23
100
AcDbEntity
  8
AM_5
100
AcDbDimension
  2
*D23
 10
162.8361216657095
 20
195.8651945932637
 30
0.0
 11
157.8361292951046
 21
198.3651945932637
 31
0.0
 70
    32
 71
     5
 42
9.999984741209914
  3
AM_ISO$0
100
AcDbAlignedDimension
 13
152.8361369244996
 23
216.1151488168935
 33
0.0
 14
162.8361216657095
 24
211.8651945932635
 34
0.0
100
AcDbRotatedDimension
1001
ACAD
1000
DSTYLE
1002
{
1070
    40
1040
1.0
1070
   144
1040
1.0
1002
}
  0
TEXT
  5
2CD
330
23
100
AcDbEntity
  8
AM_6
100
AcDbText
 10
52.84607897511808
 20
244.9296317467026
 30
0.0
 40
3.5
  1
P
100
AcDbText
  0
TEXT
  5
2CE
330
23
100
AcDbEntity
  8
AM_6
100
AcDbText
 10
121.0746937650378
 20
217.4928531689849
 30
0.0
 40
3.5
  1
R
100
AcDbText
  0
TEXT
  5
34F
330
23
100
AcDbEntity
  8
AM_6
100
AcDbText
 10
31.53661774612715
 20
299.2607624768385
 30
0.0
 40
3.5
  1
HT3-DT1-02
100
AcDbText
  0
TEXT
  5
350
330
23
100
AcDbEntity
  8
AM_6
100
AcDbText
 10
31.53661774612715
 20
294.7125391265847
 30
0.0
 40
3.5
  1
HT3-DT2-02
100
AcDbText
  0
TEXT
  5
351
330
23
100
AcDbEntity
  8
AM_6
100
AcDbText
 10
31.53661774612715
 20
290.1643157763309
 30
0.0
 40
3.5
  1
HT3-DT3-02
100
AcDbText
  0
LINE
  5
352
330
23
100
AcDbEntity
  8
AM_4
100
AcDbLine
 10
30.43359413810094
 20
288.3743509860941
 30
0.0
 11
54.70012486929386
 21
288.3743509860941
 31
0.0
  0
DIMENSION
  5
480
330
23
100
AcDbEntity
  8
PV0001_1
100
AcDbDimension
  2
*D39
 10
195.7299861804348
 20
48.25095937416103
 30
0.0
 11
191.7299861804348
 21
48.25095937416103
 31
0.0
 70
   160
  1
<>
 71
     5
 42
8.0
  3
AM_ISO
100
AcDbAlignedDimension
 13
187.7299861804348
 23
74.50095937416103
 33
0.0
 14
195.7299861804348
 24
82.00095937416103
 34
0.0
100
AcDbRotatedDimension
1001
ACAD
1000
DSTYLE
1002
{
1070
    44
1040
1.0
1070
    40
1040
1.0
1070
   284
1070
     8
1070
   140
1040
3.2
1070
   271
1070
     0
1070
    45
1040
1.0
1070
   173
1070
     1
1070
   343
1005
369
1070
   344
1005
369
1002
}
  0
DIMENSION
  5
481
330
23
100
AcDbEntity
  8
PV0001_1
100
AcDbDimension
  2
*D40
 10
50.23003195680487
 20
83.50094411537103
 30
0.0
 11
50.23003195680485
 21
104.500959374161
 31
0.0
 70
   160
  1
\U+2205<>
 71
     5
 42
42.00003051757
  3
AM_ISO
100
AcDbAlignedDimension
 13
78.72997092164485
 23
125.500974632941
 33
0.0
 14
78.72997092164485
 24
83.50094411537103
 34
0.0
 50
90.0
100
AcDbRotatedDimension
1001
ACAD
1000
DSTYLE
1002
{
1070
    44
1040
1.0
1070
    40
1040
1.0
1070
   284
1070
     8
1070
   140
1040
3.2
1070
   271
1070
     0
1070
    45
1040
1.0
1070
   173
1070
     1
1070
   343
1005
369
1070
   344
1005
369
1002
}
  0
DIMENSION
  5
482
330
23
100
AcDbEntity
  8
PV0001_1
100
AcDbDimension
  2
*D41
 10
255.2299556628549
 20
77.00095937416103
 30
0.0
 11
255.2299556628549
 21
104.500959374161
 31
0.0
 70
   160
  1
\U+2205<>
 71
     5
 42
55.00001525877999
  3
AM_ISO
100
AcDbAlignedDimension
 13
236.6868801013349
 23
132.000974632941
 33
0.0
 14
236.6868801013349
 24
77.00095937416103
 34
0.0
 50
90.0
100
AcDbRotatedDimension
1001
ACAD
1000
DSTYLE
1002
{
1070
    44
1040
1.0
1070
    40
1040
1.0
1070
   284
1070
     8
1070
   140
1040
3.2
1070
   271
1070
     0
1070
    45
1040
1.0
1070
   173
1070
     1
1070
   343
1005
369
1070
   344
1005
369
1002
}
  0
DIMENSION
  5
483
330
23
100
AcDbEntity
  8
PV0001_1
100
AcDbDimension
  2
*D42
 10
263.2299556628549
 20
74.50095937416101
 30
0.0
 11
263.2299556628549
 21
104.500959374161
 31
0.0
 70
   160
  1
\U+2205<>
 71
     5
 42
59.99999999999999
  3
AM_ISO
100
AcDbAlignedDimension
 13
191.3998775378549
 23
134.500959374161
 33
0.0
 14
191.3998165027049
 24
74.50095937416103
 34
0.0
 50
90.0
100
AcDbRotatedDimension
1001
ACAD
1000
DSTYLE
1002
{
1070
    44
1040
1.0
1070
    40
1040
1.0
1070
   284
1070
     8
1070
   140
1040
3.2
1070
   271
1070
     0
1070
    45
1040
1.0
1070
   173
1070
     1
1070
   343
1005
369
1070
   344
1005
369
1002
}
  0
DIMENSION
  5
484
330
23
100
AcDbEntity
  8
PV0001_1
100
AcDbDimension
  2
*D43
 10
42.23003195680486
 20
72.00095937416107
 30
0.0
 11
42.23003195680485
 21
104.500959374161
 31
0.0
 70
   160
  1
\U+2205<>
 71
     5
 42
64.99999999999999
  3
AM_ISO
100
AcDbAlignedDimension
 13
164.3280696765348
 23
137.000959374161
 33
0.0
 14
164.3280696765348
 24
72.00095937416103
 34
0.0
 50
90.0
100
AcDbRotatedDimension
1001
ACAD
1000
DSTYLE
1002
{
1070
    44
1040
1.0
1070
    40
1040
1.0
1070
   284
1070
     8
1070
   140
1040
3.2
1070
   271
1070
     0
1070
    45
1040
1.0
1070
   173
1070
     1
1070
   343
1005
369
1070
   344
1005
369
1002
}
  0
DIMENSION
  5
485
330
23
100
AcDbEntity
  8
PV0001_1
100
AcDbDimension
  2
*D44
 10
161.7299861804348
 20
56.25095937416102
 30
0.0
 11
166.7299861804348
 21
56.25095937416102
 31
0.0
 70
   160
  1
<>
 71
     5
 42
10.0
  3
AM_ISO
100
AcDbAlignedDimension
 13
171.7299861804348
 23
72.25095937416103
 33
0.0
 14
161.7299861804348
 24
76.25095937416102
 34
0.0
100
AcDbRotatedDimension
1001
ACAD
1000
DSTYLE
1002
{
1070
    44
1040
1.0
1070
    40
1040
1.0
1070
   284
1070
     8
1070
   140
1040
3.2
1070
   271
1070
     0
1070
    45
1040
1.0
1070
   173
1070
     1
1070
   343
1005
369
1070
   344
1005
369
1002
}
  0
DIMENSION
  5
486
330
23
100
AcDbEntity
  8
PV0001_1
100
AcDbDimension
  2
*D45
 10
187.7299861804348
 20
48.25095937416103
 30
0.0
 11
132.7299709216448
 21
48.25095937416103
 31
0.0
 70
   160
  1
<>
 71
     5
 42
110.0000152587899
  3
AM_ISO
100
AcDbAlignedDimension
 13
77.72997092164485
 23
86.50094411537102
 33
0.0
 14
187.7299861804348
 24
74.50095937416103
 34
0.0
100
AcDbRotatedDimension
1001
ACAD
1000
DSTYLE
1002
{
1070
    44
1040
1.0
1070
    40
1040
1.0
1070
   284
1070
     8
1070
   140
1040
3.2
1070
   271
1070
     0
1070
    45
1040
1.0
1070
   173
1070
     1
1070
   343
1005
369
1070
   344
1005
369
1070
    75
1070
     1
1002
}
  0
DIMENSION
  5
487
330
23
100
AcDbEntity
  8
PV0001_1
100
AcDbDimension
  2
*D46
 10
238.6868801013349
 20
40.25095937416103
 30
0.0
 11
158.2084255114948
 21
40.25095937416103
 31
0.0
 70
   160
  1
MAX.<>
 71
     5
 42
160.95690917969
  3
AM_ISO
100
AcDbAlignedDimension
 13
77.72997092164485
 23
84.50094411537103
 33
0.0
 14
238.6868801013349
 24
79.00095937416103
 34
0.0
100
AcDbRotatedDimension
1001
ACAD
1000
DSTYLE
1002
{
1070
    44
1040
1.0
1070
    40
1040
1.0
1070
   284
1070
     8
1070
   140
1040
3.2
1070
   271
1070
     0
1070
    45
1040
1.0
1070
   173
1070
     1
1070
   343
1005
369
1070
   344
1005
369
1002
}
  0
DIMENSION
  5
488
330
23
100
AcDbEntity
  8
PV0001_1
100
AcDbDimension
  2
*D47
 10
187.7299861804348
 20
152.000959374161
 30
0.0
 11
168.7299709216448
 21
152.000959374161
 31
0.0
 70
   160
  1
<>
 71
     5
 42
38.00001525878997
  3
AM_ISO
100
AcDbAlignedDimension
 13
149.7299709216448
 23
127.000928856581
 33
0.0
 14
187.7299861804348
 24
134.500959374161
 34
0.0
100
AcDbRotatedDimension
1001
ACAD
1000
DSTYLE
1002
{
1070
    44
1040
1.0
1070
    40
1040
1.0
1070
   284
1070
     8
1070
   140
1040
3.2
1070
   271
1070
     0
1070
    45
1040
1.0
1070
   173
1070
     1
1070
   343
1005
369
1070
   344
1005
369
1002
}
  0
DIMENSION
  5
489
330
23
100
AcDbEntity
  8
PV0001_1
100
AcDbDimension
  2
*D48
 10
126.7299709216448
 20
56.25095937416102
 30
0.0
 11
93.80452536500484
 21
56.25095937416102
 31
0.0
 70
   160
  1
<>
 71
     5
 42
49.0
  3
AM_ISO
100
AcDbAlignedDimension
 13
77.72997092164485
 23
86.50094411537102
 33
0.0
 14
126.7299709216448
 24
81.01615712806102
 34
0.0
100
AcDbRotatedDimension
1001
ACAD
1000
DSTYLE
1002
{
1070
    44
1040
1.0
1070
    40
1040
1.0
1070
   284
1070
     8
1070
   140
1040
3.2
1070
   271
1070
     0
1070
    45
1040
1.0
1070
   173
1070
     1
1070
   343
1005
369
1070
   344
1005
369
1070
    75
1070
     1
1002
}
  0
LINE
  5
48A
330
23
100
AcDbEntity
  8
AM_0
100
AcDbLine
 10
187.7299861804348
 20
134.500959374161
 30
0.0
 11
191.3998622790748
 21
134.500959374161
 31
0.0
  0
LINE
  5
48B
330
23
100
AcDbEntity
  8
AM_0
100
AcDbLine
 10
187.7299861804348
 20
134.500959374161
 30
0.0
 11
187.7299861804348
 21
74.50095937416103
 31
0.0
  0
LINE
  5
48C
330
23
100
AcDbEntity
  8
AM_0
100
AcDbLine
 10
195.7300166980149
 20
127.000913597791
 30
0.0
 11
191.3998775378549
 21
134.500944115371
 31
0.0
  0
LINE
  5
48D
330
23
100
AcDbEntity
  8
AM_0
100
AcDbLine
 10
219.6868801013348
 20
109.500959374161
 30
0.0
 11
201.7299861804348
 21
109.500959374161
 31
0.0
  0
LINE
  5
48E
330
23
100
AcDbEntity
  8
AM_0
100
AcDbLine
 10
149.7299709216448
 20
127.000974632941
 30
0.0
 11
161.7299861804348
 21
127.000974632941
 31
0.0
  0
LINE
  5
48F
330
23
100
AcDbEntity
  8
PV0001_1
  6
Continuous
 62
     4
 48
0.5
100
AcDbLine
 10
148.8801784411748
 20
126.150968529431
 30
0.0
 11
161.7299861804348
 21
126.150968529431
 31
0.0
  0
LINE
  5
490
330
23
100
AcDbEntity
  8
AM_0
100
AcDbLine
 10
186.7299556628548
 20
127.001005150521
 30
0.0
 11
187.7300014392248
 21
126.000959374161
 31
0.0
  0
LINE
  5
491
330
23
100
AcDbEntity
  8
AM_0
100
AcDbLine
 10
78.72997092164485
 20
125.500974632941
 30
0.0
 11
148.2299709216448
 21
125.500974632941
 31
0.0
  0
LINE
  5
492
330
23
100
AcDbEntity
  8
AM_0
100
AcDbLine
 10
149.7300777331749
 20
127.000776268691
 30
0.0
 11
148.2300777331749
 21
125.500761009901
 31
0.0
  0
LINE
  5
493
330
23
100
AcDbEntity
  8
AM_0
100
AcDbLine
 10
77.72997092164485
 20
124.500974632941
 30
0.0
 11
77.72997092164485
 21
84.50094411537103
 31
0.0
  0
LINE
  5
494
330
23
100
AcDbEntity
  8
AM_0
100
AcDbLine
 10
195.7299861804348
 20
114.300962425911
 30
0.0
 11
201.7299861804348
 21
114.300962425911
 31
0.0
  0
LINE
  5
495
330
23
100
AcDbEntity
  8
AM_0
100
AcDbLine
 10
220.6868801013349
 20
118.500959374161
 30
0.0
 11
231.6868801013348
 21
118.500959374161
 31
0.0
  0
LINE
  5
496
330
23
100
AcDbEntity
  8
AM_0
100
AcDbLine
 10
233.6868801013348
 20
132.000974632941
 30
0.0
 11
236.6868801013349
 21
132.000974632941
 31
0.0
  0
LINE
  5
497
330
23
100
AcDbEntity
  8
PV0001_1
  6
Continuous
 62
     4
 48
0.5
100
AcDbLine
 10
72.23003195680485
 20
111.750959374161
 30
0.0
 11
77.72997092164485
 21
111.750959374161
 31
0.0
  0
LINE
  5
498
330
23
100
AcDbEntity
  8
AM_0
100
AcDbLine
 10
71.23000143922485
 20
113.028089501111
 30
0.0
 11
77.73000143922485
 21
112.801099755021
 31
0.0
  0
LINE
  5
499
330
23
100
AcDbEntity
  8
PV0001_1
  6
AM_ISO02W050
 62
     4
 48
0.5
100
AcDbLine
 10
66.23003195680485
 20
110.000959374161
 30
0.0
 11
80.08501242555485
 21
110.000959374161
 31
0.0
  0
LINE
  5
49A
330
23
100
AcDbEntity
  8
AM_0
100
AcDbLine
 10
71.23003195680485
 20
115.500959374161
 30
0.0
 11
71.23003195680485
 21
93.50095937416103
 31
0.0
  0
LINE
  5
49B
330
23
100
AcDbEntity
  8
AM_0
100
AcDbLine
 10
66.23003195680485
 20
115.500959374161
 30
0.0
 11
71.23003195680485
 21
115.500959374161
 31
0.0
  0
LINE
  5
49C
330
23
100
AcDbEntity
  8
AM_0
100
AcDbLine
 10
72.23003195680485
 20
113.027952172011
 30
0.0
 11
72.23003195680485
 21
95.97396657630103
 31
0.0
  0
LINE
  5
49D
330
23
100
AcDbEntity
  8
PV0001_1
  6
AM_ISO02W050
 62
     4
 48
0.5
100
AcDbLine
 10
66.23000143922485
 20
111.081159569471
 30
0.0
 11
76.93001364625485
 21
110.707502342911
 31
0.0
  0
LINE
  5
49E
330
23
100
AcDbEntity
  8
PV0001_1
  6
AM_ISO08W050
 62
     4
 48
0.5
100
AcDbLine
 10
226.1868801013349
 20
104.500959374161
 30
0.0
 11
226.1868801013349
 21
108.994382836071
 31
0.0
  0
LINE
  5
49F
330
23
100
AcDbEntity
  8
AM_0
100
AcDbLine
 10
226.1870784655948
 20
104.500699974741
 30
0.0
 11
227.4861202136449
 21
105.250699974741
 31
0.0
  0
LINE
  5
4A0
330
23
100
AcDbEntity
  8
AM_0
100
AcDbLine
 10
226.1868648425449
 20
104.500867821421
 30
0.0
 11
224.8878536120749
 21
105.250852562631
 31
0.0
  0
LINE
  5
4A1
330
23
100
AcDbEntity
  8
AM_0
100
AcDbLine
 10
226.1868801013349
 20
104.500959374161
 30
0.0
 11
226.1868801013349
 21
106.000959374161
 31
0.0
  0
LINE
  5
4A2
330
23
100
AcDbEntity
  8
AM_0
100
AcDbLine
 10
171.7299861804348
 20
136.750959374161
 30
0.0
 11
171.7299861804348
 21
72.25095937416103
 31
0.0
  0
LINE
  5
4A3
330
23
100
AcDbEntity
  8
AM_0
100
AcDbLine
 10
161.7299861804348
 20
132.750959374161
 30
0.0
 11
161.7299861804348
 21
76.25095937416102
 31
0.0
  0
LINE
  5
4A4
330
23
100
AcDbEntity
  8
AM_0
100
AcDbLine
 10
187.7299861804348
 20
74.50095937416103
 30
0.0
 11
191.3998622790748
 21
74.50095937416103
 31
0.0
  0
LINE
  5
4A5
330
23
100
AcDbEntity
  8
AM_0
100
AcDbLine
 10
195.7299861804348
 20
82.00095937416103
 30
0.0
 11
195.7299861804348
 21
127.000974632941
 31
0.0
  0
LINE
  5
4A6
330
23
100
AcDbEntity
  8
AM_0
100
AcDbLine
 10
195.7299251452848
 20
82.00094411537103
 30
0.0
 11
191.3998012439148
 21
74.50092885658103
 31
0.0
  0
LINE
  5
4A7
330
23
100
AcDbEntity
  8
AM_0
100
AcDbLine
 10
219.6868801013348
 20
99.50095937416103
 30
0.0
 11
201.7299861804348
 21
99.50095937416103
 31
0.0
  0
LINE
  5
4A8
330
23
100
AcDbEntity
  8
AM_0
100
AcDbLine
 10
149.7299709216448
 20
82.00095937416103
 30
0.0
 11
161.7299861804348
 21
82.00095937416103
 31
0.0
  0
LINE
  5
4A9
330
23
100
AcDbEntity
  8
PV0001_1
  6
Continuous
 62
     4
 48
0.5
100
AcDbLine
 10
148.8799648181348
 20
82.85095021888102
 30
0.0
 11
161.7299861804348
 21
82.85095021888102
 31
0.0
  0
LINE
  5
4AA
330
23
100
AcDbEntity
  8
AM_0
100
AcDbLine
 10
186.7295894519249
 20
82.00131032630102
 30
0.0
 11
187.7299861804348
 21
83.00170705482102
 31
0.0
  0
LINE
  5
4AB
330
23
100
AcDbEntity
  8
AM_0
100
AcDbLine
 10
78.72997092164485
 20
83.50094411537103
 30
0.0
 11
148.2299709216448
 21
83.50094411537103
 31
0.0
  0
LINE
  5
4AC
330
23
100
AcDbEntity
  8
AM_0
100
AcDbLine
 10
149.7299251452848
 20
82.00098989173103
 30
0.0
 11
148.2299098864948
 21
83.50100515052103
 31
0.0
  0
LINE
  5
4AD
330
23
100
AcDbEntity
  8
AM_0
100
AcDbLine
 10
195.7299861804348
 20
94.70095632240102
 30
0.0
 11
201.7299861804348
 21
94.70095632240102
 31
0.0
  0
LINE
  5
4AE
330
23
100
AcDbEntity
  8
AM_0
100
AcDbLine
 10
201.7299861804348
 20
94.70095632240102
 30
0.0
 11
201.7299861804348
 21
114.300962425911
 31
0.0
  0
LINE
  5
4AF
330
23
100
AcDbEntity
  8
AM_0
100
AcDbLine
 10
220.6868801013349
 20
90.50095937416102
 30
0.0
 11
231.6868801013348
 21
90.50095937416102
 31
0.0
  0
LINE
  5
4B0
330
23
100
AcDbEntity
  8
AM_0
100
AcDbLine
 10
219.6868801013348
 20
117.500959374161
 30
0.0
 11
219.6868801013348
 21
91.50095937416102
 31
0.0
  0
LINE
  5
4B1
330
23
100
AcDbEntity
  8
AM_0
100
AcDbLine
 10
231.6868801013348
 20
130.000974632941
 30
0.0
 11
231.6868801013348
 21
79.00095937416103
 31
0.0
  0
LINE
  5
4B2
330
23
100
AcDbEntity
  8
AM_0
100
AcDbLine
 10
233.6868801013348
 20
77.00095937416103
 30
0.0
 11
236.6868801013349
 21
77.00095937416103
 31
0.0
  0
LINE
  5
4B3
330
23
100
AcDbEntity
  8
AM_0
100
AcDbLine
 10
238.6868801013349
 20
130.000974632941
 30
0.0
 11
238.6868801013349
 21
79.00095937416103
 31
0.0
  0
LINE
  5
4B4
330
23
100
AcDbEntity
  8
PV0001_1
  6
Continuous
 62
     4
 48
0.5
100
AcDbLine
 10
72.23003195680485
 20
97.25095937416103
 30
0.0
 11
77.72997092164485
 21
97.25095937416103
 31
0.0
  0
LINE
  5
4B5
330
23
100
AcDbEntity
  8
AM_0
100
AcDbLine
 10
71.22994040407485
 20
95.97410390541103
 30
0.0
 11
77.72997092164485
 21
96.20109365150103
 31
0.0
  0
LINE
  5
4B6
330
23
100
AcDbEntity
  8
PV0001_1
  6
AM_ISO02W050
 62
     4
 48
0.5
100
AcDbLine
 10
66.23003195680485
 20
99.00095937416104
 30
0.0
 11
80.08501242555485
 21
99.00095937416104
 31
0.0
  0
LINE
  5
4B7
330
23
100
AcDbEntity
  8
PV0001_1
  6
AM_ISO02W050
 62
     4
 48
0.5
100
AcDbLine
 10
76.92998312867485
 20
98.17239186927103
 30
0.0
 11
76.92998312867485
 21
110.707365013801
 31
0.0
  0
LINE
  5
4B8
330
23
100
AcDbEntity
  8
AM_0
100
AcDbLine
 10
66.23003195680485
 20
93.50095937416103
 30
0.0
 11
66.23003195680485
 21
115.500959374161
 31
0.0
  0
LINE
  5
4B9
330
23
100
AcDbEntity
  8
AM_0
100
AcDbLine
 10
66.23003195680485
 20
93.50095937416103
 30
0.0
 11
71.23003195680485
 21
93.50095937416103
 31
0.0
  0
LINE
  5
4BA
330
23
100
AcDbEntity
  8
PV0001_1
  6
AM_ISO02W050
 62
     4
 48
0.5
100
AcDbLine
 10
66.22994040407485
 20
97.92114064857102
 30
0.0
 11
76.92992209352485
 21
98.29479787513102
 31
0.0
  0
LINE
  5
4BB
330
23
100
AcDbEntity
  8
PV0001_1
  6
AM_ISO08W050
 62
     4
 48
0.5
100
AcDbLine
 10
226.1868801013349
 20
104.500959374161
 30
0.0
 11
226.1868801013349
 21
100.007535912241
 31
0.0
  0
LINE
  5
4BC
330
23
100
AcDbEntity
  8
AM_0
100
AcDbLine
 10
226.1868648425449
 20
104.500867821421
 30
0.0
 11
227.4859065905948
 21
103.750867821421
 31
0.0
  0
LINE
  5
4BD
330
23
100
AcDbEntity
  8
AM_0
100
AcDbLine
 10
226.1870784655948
 20
104.500699974741
 30
0.0
 11
224.8880367175449
 21
103.750699974741
 31
0.0
  0
LINE
  5
4BE
330
23
100
AcDbEntity
  8
AM_0
100
AcDbLine
 10
226.1868801013349
 20
104.500959374161
 30
0.0
 11
226.1868801013349
 21
103.000959374161
 31
0.0
  0
LINE
  5
4BF
330
23
100
AcDbEntity
  8
PV0001_1
  6
AM_ISO08W050
 62
     4
 48
0.5
100
AcDbLine
 10
126.7299709216448
 20
81.01615712806102
 30
0.0
 11
126.7299709216448
 21
98.67965505287102
 31
0.0
  0
LINE
  5
4C0
330
23
100
AcDbEntity
  8
PV0001_1
  6
AM_ISO02W050
 62
     4
 48
0.5
100
AcDbLine
 10
132.2299709216448
 20
83.50094411537103
 30
0.0
 11
132.2299709216448
 21
93.70095632240103
 31
0.0
  0
LINE
  5
4C1
330
23
100
AcDbEntity
  8
PV0001_1
  6
AM_ISO02W050
 62
     4
 48
0.5
100
AcDbLine
 10
121.2299709216448
 20
83.50094411537103
 30
0.0
 11
121.2299709216448
 21
93.70095632240103
 31
0.0
  0
LINE
  5
4C2
330
23
100
AcDbEntity
  8
PV0001_1
  6
AM_ISO02W050
 62
     4
 48
0.5
100
AcDbLine
 10
120.1504421130548
 20
83.50094411537103
 30
0.0
 11
120.5066432849248
 21
93.70095632240103
 31
0.0
  0
LINE
  5
4C3
330
23
100
AcDbEntity
  8
PV0001_1
  6
AM_ISO02W050
 62
     4
 48
0.5
100
AcDbLine
 10
133.3093776599248
 20
83.50095937416103
 30
0.0
 11
132.9532070056348
 21
93.70094106361102
 31
0.0
  0
LINE
  5
4C4
330
23
100
AcDbEntity
  8
AM_0
100
AcDbLine
 10
66.23003195680485
 20
110.000959374161
 30
0.0
 11
71.23003195680485
 21
110.000959374161
 31
0.0
  0
LINE
  5
4C5
330
23
100
AcDbEntity
  8
AM_0
100
AcDbLine
 10
66.23003195680485
 20
99.00095937416104
 30
0.0
 11
71.23003195680485
 21
99.00095937416104
 31
0.0
  0
LINE
  5
4C6
330
23
100
AcDbEntity
  8
AM_0
100
AcDbLine
 10
171.7299861804348
 20
127.000974632941
 30
0.0
 11
186.7299861804348
 21
127.000974632941
 31
0.0
  0
LINE
  5
4C7
330
23
100
AcDbEntity
  8
PV0001_1
  6
Continuous
 62
     4
 48
0.5
100
AcDbLine
 10
171.7299861804348
 20
126.150968529431
 30
0.0
 11
187.5799922839549
 21
126.150968529431
 31
0.0
  0
LINE
  5
4C8
330
23
100
AcDbEntity
  8
PV0001_1
  6
Continuous
 62
     4
 48
0.5
100
AcDbLine
 10
171.7299861804348
 20
82.85095021888102
 30
0.0
 11
187.5799922839549
 21
82.85095021888102
 31
0.0
  0
LINE
  5
4C9
330
23
100
AcDbEntity
  8
AM_0
100
AcDbLine
 10
171.7299861804348
 20
82.00095937416103
 30
0.0
 11
186.7299861804348
 21
82.00095937416103
 31
0.0
  0
LINE
  5
4CA
330
23
100
AcDbEntity
  8
AM_0
100
AcDbLine
 10
191.3998775378549
 20
134.500974632941
 30
0.0
 11
191.3998775378549
 21
74.50095937416103
 31
0.0
  0
LINE
  5
4CB
330
23
100
AcDbEntity
  8
AM_0
100
AcDbLine
 10
186.7299556628548
 20
127.001005150521
 30
0.0
 11
186.7299556628548
 21
82.00095937416103
 31
0.0
  0
LINE
  5
4CC
330
23
100
AcDbEntity
  8
AM_0
100
AcDbLine
 10
149.7299709216448
 20
127.000928856581
 30
0.0
 11
149.7299709216448
 21
82.00095937416103
 31
0.0
  0
LINE
  5
4CD
330
23
100
AcDbEntity
  8
AM_0
100
AcDbLine
 10
148.2299709216448
 20
125.500928856581
 30
0.0
 11
148.2299709216448
 21
83.50094411537103
 31
0.0
  0
LINE
  5
4CE
330
23
100
AcDbEntity
  8
PV0001_1
  6
AM_ISO08W050
 62
     4
100
AcDbLine
 10
63.32643698610485
 20
104.500959374161
 30
0.0
 11
241.4092922107148
 21
104.500959374161
 31
0.0
  0
LINE
  5
4CF
330
23
100
AcDbEntity
  8
PV0001_1
  6
AM_ISO08W050
 62
     4
100
AcDbLine
 10
320.2299861804328
 20
140.000959374161
 30
0.0
 11
320.2299861804328
 21
69.00095937416103
 31
0.0
  0
LINE
  5
4D0
330
23
100
AcDbEntity
  8
PV0001_1
  6
AM_ISO08W050
 62
     4
100
AcDbLine
 10
284.7299861804348
 20
104.500959374161
 30
0.0
 11
355.7299861804328
 21
104.500959374161
 31
0.0
  0
LINE
  5
4D1
330
23
100
AcDbEntity
  8
AM_0
100
AcDbLine
 10
290.2299861804348
 20
107.500974632941
 30
0.0
 11
287.8687496081749
 21
107.500974632941
 31
0.0
  0
LINE
  5
4D2
330
23
100
AcDbEntity
  8
AM_0
100
AcDbLine
 10
290.2299861804348
 20
101.500974632941
 30
0.0
 11
287.8687496081749
 21
101.500974632941
 31
0.0
  0
LINE
  5
4D3
330
23
100
AcDbEntity
  8
AM_0
100
AcDbLine
 10
290.2300014392249
 20
107.500959374161
 30
0.0
 11
290.2300014392249
 21
101.500959374161
 31
0.0
  0
LINE
  5
4D4
330
23
100
AcDbEntity
  8
AM_0
100
AcDbLine
 10
162.8846950427448
 20
101.500959374161
 30
0.0
 11
171.7299861804348
 21
101.500959374161
 31
0.0
  0
LINE
  5
4D5
330
23
100
AcDbEntity
  8
AM_0
100
AcDbLine
 10
162.8846950427448
 20
107.500959374161
 30
0.0
 11
171.7299861804348
 21
107.500959374161
 31
0.0
  0
LINE
  5
4D6
330
23
100
AcDbEntity
  8
PV0001_1
  6
AM_ISO02W050
 62
     4
 48
0.5
100
AcDbLine
 10
162.8846950427448
 20
74.50095937416103
 30
0.0
 11
171.7299861804348
 21
74.50095937416103
 31
0.0
  0
LINE
  5
4D7
330
23
100
AcDbEntity
  8
PV0001_1
  6
AM_ISO02W050
 62
     4
 48
0.5
100
AcDbLine
 10
162.8846950427448
 20
134.500959374161
 30
0.0
 11
171.7299861804348
 21
134.500959374161
 31
0.0
  0
LINE
  5
4D8
330
23
100
AcDbEntity
  8
AM_0
100
AcDbLine
 10
164.3280696765348
 20
72.00095937416103
 30
0.0
 11
171.7299861804348
 21
72.00095937416103
 31
0.0
  0
LINE
  5
4D9
330
23
100
AcDbEntity
  8
AM_0
100
AcDbLine
 10
164.3280696765348
 20
137.000959374161
 30
0.0
 11
171.7299861804348
 21
137.000959374161
 31
0.0
  0
LINE
  5
4DA
330
23
100
AcDbEntity
  8
AM_0
100
AcDbLine
 10
161.7299709216448
 20
132.500974632941
 30
0.0
 11
164.3280544177448
 21
137.000959374161
 31
0.0
  0
LINE
  5
4DB
330
23
100
AcDbEntity
  8
AM_0
100
AcDbLine
 10
161.7300014392248
 20
76.50091359779103
 30
0.0
 11
164.3280696765348
 21
72.00092885658103
 31
0.0
  0
LINE
  5
4DC
330
23
100
AcDbEntity
  8
AM_0
100
AcDbLine
 10
162.8846950427448
 20
101.500959374161
 30
0.0
 11
162.8846950427448
 21
107.500959374161
 31
0.0
  0
LINE
  5
4DD
330
23
100
AcDbEntity
  8
AM_0
100
AcDbLine
 10
164.3280696765348
 20
72.00095937416103
 30
0.0
 11
164.3280696765348
 21
101.500959374161
 31
0.0
  0
LINE
  5
4DE
330
23
100
AcDbEntity
  8
AM_0
100
AcDbLine
 10
164.3280696765348
 20
137.000959374161
 30
0.0
 11
164.3280696765348
 21
107.500959374161
 31
0.0
  0
LINE
  5
4DF
330
23
100
AcDbEntity
  8
AM_0
100
AcDbLine
 10
317.2299785510389
 20
74.50094411537103
 30
0.0
 11
317.2299785510389
 21
72.13970754310103
 31
0.0
  0
LINE
  5
4E0
330
23
100
AcDbEntity
  8
AM_0
100
AcDbLine
 10
317.2299861804328
 20
74.50095937416103
 30
0.0
 11
323.2299861804329
 21
74.50095937416103
 31
0.0
  0
LINE
  5
4E1
330
23
100
AcDbEntity
  8
AM_0
100
AcDbLine
 10
323.2299861804329
 20
74.50094411537103
 30
0.0
 11
323.2299861804329
 21
72.13970754310103
 31
0.0
  0
LINE
  5
4E2
330
23
100
AcDbEntity
  8
AM_0
100
AcDbLine
 10
350.2300014392218
 20
101.500944115371
 30
0.0
 11
352.5912380114879
 21
101.500944115371
 31
0.0
  0
LINE
  5
4E3
330
23
100
AcDbEntity
  8
AM_0
100
AcDbLine
 10
350.2299938098279
 20
101.500944115371
 30
0.0
 11
350.2299938098279
 21
107.500944115371
 31
0.0
  0
LINE
  5
4E4
330
23
100
AcDbEntity
  8
AM_0
100
AcDbLine
 10
350.2300014392218
 20
107.500944115371
 30
0.0
 11
352.5912380114879
 21
107.500944115371
 31
0.0
  0
LINE
  5
4E5
330
23
100
AcDbEntity
  8
AM_0
100
AcDbLine
 10
323.2300090686168
 20
134.500959374161
 30
0.0
 11
323.2300090686168
 21
136.862195946421
 31
0.0
  0
LINE
  5
4E6
330
23
100
AcDbEntity
  8
AM_0
100
AcDbLine
 10
323.2300014392218
 20
134.500959374161
 30
0.0
 11
317.2300014392218
 21
134.500959374161
 31
0.0
  0
LINE
  5
4E7
330
23
100
AcDbEntity
  8
AM_0
100
AcDbLine
 10
317.2300090686168
 20
134.500959374161
 30
0.0
 11
317.2300090686168
 21
136.862195946421
 31
0.0
  0
LINE
  5
4E8
330
23
100
AcDbEntity
  8
PV0001_1
  6
Continuous
 62
     4
 48
0.5
100
AcDbLine
 10
194.3413448230149
 20
152.000959374161
 30
0.0
 11
220.2275295153949
 21
152.000959374161
 31
0.0
  0
LINE
  5
4E9
330
23
100
AcDbEntity
  8
PV0001_1
  6
Continuous
 62
     4
100
AcDbLine
 10
88.04152487672485
 20
32.25095937416103
 30
0.0
 11
118.1028041736048
 21
32.25095937416103
 31
0.0
  0
LINE
  5
4EA
330
23
100
AcDbEntity
  8
AM_0
100
AcDbLine
 10
77.73000143922485
 20
124.500944115371
 30
0.0
 11
78.73000143922485
 21
125.500944115371
 31
0.0
  0
LINE
  5
4EB
330
23
100
AcDbEntity
  8
AM_0
100
AcDbLine
 10
77.73000143922485
 20
84.50094411537103
 30
0.0
 11
78.72997092164485
 21
83.50095937416103
 31
0.0
  0
LINE
  5
4EC
330
23
100
AcDbEntity
  8
AM_0
100
AcDbLine
 10
78.72997092164485
 20
83.50094411537103
 30
0.0
 11
78.72997092164485
 21
125.500974632941
 31
0.0
  0
LINE
  5
4ED
330
23
100
AcDbEntity
  8
PV0001_1
  6
Continuous
 62
     4
 48
0.5
100
AcDbLine
 10
219.6868801013348
 20
100.250959374161
 30
0.0
 11
201.7299861804348
 21
100.250959374161
 31
0.0
  0
LINE
  5
4EE
330
23
100
AcDbEntity
  8
PV0001_1
  6
Continuous
 62
     4
 48
0.5
100
AcDbLine
 10
219.6868801013348
 20
108.750959374161
 30
0.0
 11
201.7299861804348
 21
108.750959374161
 31
0.0
  0
LINE
  5
4EF
330
23
100
AcDbEntity
  8
AM_0
100
AcDbLine
 10
195.7299861804348
 20
99.60096547767102
 30
0.0
 11
201.7299861804348
 21
99.60096547767102
 31
0.0
  0
LINE
  5
4F0
330
23
100
AcDbEntity
  8
AM_0
100
AcDbLine
 10
195.7299861804348
 20
109.400953270641
 30
0.0
 11
201.7299861804348
 21
109.400953270641
 31
0.0
  0
ARC
  5
4F1
330
23
100
AcDbEntity
  8
AM_0
100
AcDbCircle
 10
233.6868801013348
 20
130.000974632941
 30
0.0
 40
2.0
100
AcDbArc
 50
89.99998201391097
 51
179.9999640278186
  0
ARC
  5
4F2
330
23
100
AcDbEntity
  8
AM_0
100
AcDbCircle
 10
236.6868801013349
 20
130.000974632941
 30
0.0
 40
2.0
100
AcDbArc
 50
0.0
 51
89.99998201391097
  0
ARC
  5
4F3
330
23
100
AcDbEntity
  8
AM_0
100
AcDbCircle
 10
220.6868801013349
 20
117.500959374161
 30
0.0
 40
1.0
100
AcDbArc
 50
89.99998201391097
 51
179.9999640278186
  0
CIRCLE
  5
4F4
330
23
100
AcDbEntity
  8
PV0001_1
  6
Continuous
 62
     4
 48
0.5
100
AcDbCircle
 10
226.1868801013349
 20
104.500959374161
 30
0.0
 40
2.5
  0
ARC
  5
4F5
330
23
100
AcDbEntity
  8
AM_0
100
AcDbCircle
 10
233.6868801013348
 20
79.00095937416103
 30
0.0
 40
2.0
100
AcDbArc
 50
179.9999776881986
 51
269.9999733624863
  0
ARC
  5
4F6
330
23
100
AcDbEntity
  8
AM_0
100
AcDbCircle
 10
236.6868801013349
 20
79.00095937416103
 30
0.0
 40
2.0
100
AcDbArc
 50
269.9999633445789
 51
359.9999453584883
  0
ARC
  5
4F7
330
23
100
AcDbEntity
  8
AM_0
100
AcDbCircle
 10
220.6868801013349
 20
91.50095937416102
 30
0.0
 40
1.0
100
AcDbArc
 50
179.9999776881986
 51
269.9999733624863
  0
CIRCLE
  5
4F8
330
23
100
AcDbEntity
  8
AM_0
100
AcDbCircle
 10
226.1868801013349
 20
104.500959374161
 30
0.0
 40
3.0
  0
ARC
  5
4F9
330
23
100
AcDbEntity
  8
AM_0
100
AcDbCircle
 10
320.2299861804328
 20
104.500959374161
 30
0.0
 40
32.5
100
AcDbArc
 50
5.296353651786875
 51
84.70358012391828
  0
ARC
  5
4FA
330
23
100
AcDbEntity
  8
AM_0
100
AcDbCircle
 10
320.2299861804328
 20
104.500959374161
 30
0.0
 40
27.5
100
AcDbArc
 50
14.2763316295643
 51
30.72364230191384
  0
CIRCLE
  5
4FB
330
23
100
AcDbEntity
  8
AM_0
100
AcDbCircle
 10
320.2299861804328
 20
104.500959374161
 30
0.0
 40
30.0
  0
CIRCLE
  5
4FC
330
23
100
AcDbEntity
  8
AM_0
100
AcDbCircle
 10
320.2299861804328
 20
104.500959374161
 30
0.0
 40
20.0
  0
ARC
  5
4FD
330
23
100
AcDbEntity
  8
AM_0
100
AcDbCircle
 10
344.2716045276009
 20
80.45931813880102
 30
0.0
 40
10.0
100
AcDbArc
 50
92.30105225471893
 51
177.6989279379583
  0
ARC
  5
4FE
330
23
100
AcDbEntity
  8
AM_0
100
AcDbCircle
 10
354.2299861804328
 20
104.500959374161
 30
0.0
 40
10.0
100
AcDbArc
 50
137.3010500918636
 51
222.6989326052913
  0
ARC
  5
4FF
330
23
100
AcDbEntity
  8
AM_0
100
AcDbCircle
 10
344.2716197863898
 20
128.542585350721
 30
0.0
 40
10.0
100
AcDbArc
 50
182.3010720620417
 51
267.6989545754702
  0
ARC
  5
500
330
23
100
AcDbEntity
  8
AM_0
100
AcDbCircle
 10
320.2299938098279
 20
138.500959374161
 30
0.0
 40
10.0
100
AcDbArc
 50
227.301063068997
 51
312.698952412616
  0
ARC
  5
501
330
23
100
AcDbEntity
  8
AM_0
100
AcDbCircle
 10
296.1883602038748
 20
128.542600609511
 30
0.0
 40
10.0
100
AcDbArc
 50
272.3010609061401
 51
357.6989502497598
  0
ARC
  5
502
330
23
100
AcDbEntity
  8
AM_0
100
AcDbCircle
 10
286.2299861804348
 20
104.500974632941
 30
0.0
 40
10.0
100
AcDbArc
 50
317.3010587432855
 51
42.69894808690315
  0
ARC
  5
503
330
23
100
AcDbEntity
  8
AM_0
100
AcDbCircle
 10
296.1883449450848
 20
80.45933339759102
 30
0.0
 40
10.0
100
AcDbArc
 50
2.301056580431134
 51
87.69894592404915
  0
ARC
  5
504
330
23
100
AcDbEntity
  8
AM_0
100
AcDbCircle
 10
320.2299709216438
 20
70.50095937416102
 30
0.0
 40
10.0
100
AcDbArc
 50
47.30105441757589
 51
132.698936931003
  0
ARC
  5
505
330
23
100
AcDbEntity
  8
AM_0
100
AcDbCircle
 10
320.2299861804328
 20
104.500959374161
 30
0.0
 40
27.5
100
AcDbArc
 50
329.2763235471381
 51
345.7236752006207
  0
ARC
  5
506
330
23
100
AcDbEntity
  8
AM_0
100
AcDbCircle
 10
320.2299861804328
 20
104.500959374161
 30
0.0
 40
27.5
100
AcDbArc
 50
284.2763154647128
 51
300.7236432125312
  0
ARC
  5
507
330
23
100
AcDbEntity
  8
AM_0
100
AcDbCircle
 10
320.2299861804328
 20
104.500959374161
 30
0.0
 40
27.5
100
AcDbArc
 50
239.2762971369956
 51
255.7236180546295
  0
ARC
  5
508
330
23
100
AcDbEntity
  8
AM_0
100
AcDbCircle
 10
320.2299861804328
 20
104.500959374161
 30
0.0
 40
27.5
100
AcDbArc
 50
194.2762788092846
 51
210.7236202174841
  0
ARC
  5
509
330
23
100
AcDbEntity
  8
AM_0
100
AcDbCircle
 10
320.2299861804328
 20
104.500959374161
 30
0.0
 40
27.5
100
AcDbArc
 50
149.2763388013774
 51
165.7236528888238
  0
ARC
  5
50A
330
23
100
AcDbEntity
  8
AM_0
100
AcDbCircle
 10
320.2299861804328
 20
104.500959374161
 30
0.0
 40
27.5
100
AcDbArc
 50
104.276347794421
 51
120.723675542245
  0
ARC
  5
50B
330
23
100
AcDbEntity
  8
AM_0
100
AcDbCircle
 10
320.2299861804328
 20
104.500959374161
 30
0.0
 40
27.5
100
AcDbArc
 50
59.27632946670769
 51
75.72365038434593
  0
ARC
  5
50C
330
23
100
AcDbEntity
  8
AM_0
100
AcDbCircle
 10
320.2299861804328
 20
104.500959374161
 30
0.0
 40
32.5
100
AcDbArc
 50
275.2963788949476
 51
354.7035981100036
  0
ARC
  5
50D
330
23
100
AcDbEntity
  8
AM_0
100
AcDbCircle
 10
320.2299861804328
 20
104.500959374161
 30
0.0
 40
32.5
100
AcDbArc
 50
185.2963285791481
 51
264.7035887753408
  0
ARC
  5
50E
330
23
100
AcDbEntity
  8
AM_0
100
AcDbCircle
 10
320.2299861804328
 20
104.500959374161
 30
0.0
 40
32.5
100
AcDbArc
 50
95.29636341333754
 51
174.7036167793398
  0
MTEXT
  5
50F
330
23
100
AcDbEntity
  8
PV0001_1
 62
     2
100
AcDbMText
 10
196.7699159876229
 20
155.200956322401
 30
0.0
 40
3.2
 41
0.0
 71
     4
 72
     5
  1
\T1.40;\W0.61;Ｍ４５Ｘ１．５
 73
     1
 44
1.0
1001
ACAD
1000
MTEXTBEGIN
1070
    73
1070
     1
1070
    44
1040
1.0
1070
    74
1070
     0
1000
MTEXTEND
  0
MTEXT
  5
510
330
23
100
AcDbEntity
  8
PV0001_1
 62
     2
100
AcDbMText
 10
61.37074117816855
 20
108.296583153451
 30
0.0
 40
4.009999999999999
 41
0.0
 71
     4
 72
     5
  1
\T1.40;\W0.61;Ｐ
 73
     1
 44
1.0
1001
ACAD
1000
MTEXTBEGIN
1070
    73
1070
     1
1070
    44
1040
1.0
1070
    74
1070
     0
1000
MTEXTEND
  0
MTEXT
  5
511
330
23
100
AcDbEntity
  8
PV0001_1
 62
     2
100
AcDbMText
 10
121.2863600746485
 20
78.13215444252103
 30
0.0
 40
4.009999999999999
 41
0.0
 71
     4
 72
     5
  1
\T1.40;\W0.61;Ｒ
 73
     1
 44
1.0
1001
ACAD
1000
MTEXTBEGIN
1070
    73
1070
     1
1070
    44
1040
1.0
1070
    74
1070
     0
1000
MTEXTEND
  0
MTEXT
  5
512
330
23
100
AcDbEntity
  8
PV0001_1
 62
     2
100
AcDbMText
 10
93.47009604133285
 20
35.45095632240103
 30
0.0
 40
3.2
 41
0.0
 71
     4
 72
     5
  1
\T1.40;\W0.61;２－Ｒｃ １／４
 73
     1
 44
1.0
1001
ACAD
1000
MTEXTBEGIN
1070
    73
1070
     1
1070
    44
1040
1.0
1070
    74
1070
     0
1000
MTEXTEND
  0
INSERT
  5
517
330
23
100
AcDbEntity
  8
PV0001_1
100
AcDbBlockReference
  2
*U36
 10
179.9075679675449
 20
127.001020409311
 30
0.0
  0
INSERT
  5
518
330
23
100
AcDbEntity
  8
PV0001_1
100
AcDbBlockReference
  2
*U37
 10
120.3120632068048
 20
88.14587209388102
 30
0.0
  0
TEXT
  5
5F3
330
23
100
AcDbEntity
  8
AM_6
100
AcDbText
 10
31.53661774612715
 20
156.1960698244354
 30
0.0
 40
3.5
  1
HT3-DT5-02
100
AcDbText
  0
LINE
  5
5F4
330
23
100
AcDbEntity
  8
AM_4
100
AcDbLine
 10
30.43359413810094
 20
154.4061050341986
 30
0.0
 11
54.70012486929386
 21
154.4061050341986
 31
0.0
  0
LINE
  5
5F9
330
23
100
AcDbEntity
  8
AM_4
100
AcDbLine
 10
23.64257599722987
 20
306.7780715888632
 30
0.0
 11
23.64257599722987
 21
21.40197752104268
 31
0.0
  0
LINE
  5
5FA
330
23
100
AcDbEntity
  8
AM_4
100
AcDbLine
 10
23.64257599722987
 20
306.7780715888632
 30
0.0
 11
362.4168591126312
 21
306.7780715888632
 31
0.0
  0
LINE
  5
5FB
330
23
100
AcDbEntity
  8
AM_4
100
AcDbLine
 10
23.64257599722987
 20
165.4413129293278
 30
0.0
 11
362.4168591126312
 21
165.4413129293278
 31
0.0
  0
LINE
  5
6B0
330
23
100
AcDbEntity
  8
AM_4
100
AcDbLine
 10
362.4168591126312
 20
306.7780715888632
 30
0.0
 11
362.4168591126312
 21
21.40197752104268
 31
0.0
  0
LINE
  5
6B1
330
23
100
AcDbEntity
  8
AM_4
100
AcDbLine
 10
23.64257599722987
 20
21.40197752104268
 30
0.0
 11
362.4168591126312
 21
21.40197752104268
 31
0.0
  0
TEXT
  5
776
330
23
100
AcDbEntity
  8
AM_6
100
AcDbText
 10
20.98190146666661
 20
309.0774105450399
 30
0.0
 40
3.5
  1
パイロットリリーフ弁: HT
100
AcDbText
  0
ENDSEC
  0
SECTION
  2
OBJECTS
  0
DICTIONARY
  5
C
330
0
100
AcDbDictionary
281
     1
  3
ACAD_COLOR
350
1C
  3
ACAD_GROUP
350
D
  3
ACAD_LAYOUT
350
1A
  3
ACAD_MATERIAL
350
1B
  3
ACAD_MLINESTYLE
350
17
  3
ACAD_PLOTSETTINGS
350
19
  3
ACAD_PLOTSTYLENAME
350
E
  3
ACAD_TABLESTYLE
350
1D
  3
ACDBHEADERROUNDTRIPXREC
350
791
  3
AcDbVariableDictionary
350
5F7
  3
AcmDictionary
350
AD
  3
AMG
350
2F
  3
AMGSNAPSETTINGS
350
221
  0
DICTIONARY
  5
16E
330
2
100
AcDbDictionary
280
     1
281
     1
  3
ACAD_LAYERSTATES
360
16F
  0
DICTIONARY
  5
2AE
330
2AD
100
AcDbDictionary
280
     1
281
     1
  3
ACAD_DIMASSOC
360
2AF
  0
DICTIONARY
  5
2B1
330
2B0
100
AcDbDictionary
280
     1
281
     1
  3
ACAD_DIMASSOC
360
2B2
  0
DICTIONARY
  5
2B4
330
2B3
100
AcDbDictionary
280
     1
281
     1
  3
ACAD_DIMASSOC
360
2B5
  0
DICTIONARY
  5
2B7
330
2B6
100
AcDbDictionary
280
     1
281
     1
  3
ACAD_DIMASSOC
360
2B8
  0
DICTIONARY
  5
2BA
330
2B9
100
AcDbDictionary
280
     1
281
     1
  3
ACAD_DIMASSOC
360
2BB
  0
DICTIONARY
  5
2BD
330
2BC
100
AcDbDictionary
280
     1
281
     1
  3
ACAD_DIMASSOC
360
2BE
  0
DICTIONARY
  5
2C0
330
2BF
100
AcDbDictionary
280
     1
281
     1
  3
ACAD_DIMASSOC
360
2C1
  0
DICTIONARY
  5
2C3
330
2C2
100
AcDbDictionary
280
     1
281
     1
  3
ACAD_DIMASSOC
360
2C4
  0
DICTIONARY
  5
2C6
330
2C5
100
AcDbDictionary
280
     1
281
     1
  3
ACAD_DIMASSOC
360
2C7
  0
DICTIONARY
  5
2CB
330
2CA
100
AcDbDictionary
280
     1
281
     1
  3
ACAD_DIMASSOC
360
2CC
  0
DICTIONARY
  5
1C
102
{ACAD_REACTORS
330
C
102
}
330
C
100
AcDbDictionary
281
     1
  0
DICTIONARY
  5
D
102
{ACAD_REACTORS
330
C
102
}
330
C
100
AcDbDictionary
281
     1
  0
DICTIONARY
  5
1A
102
{ACAD_REACTORS
330
C
102
}
330
C
100
AcDbDictionary
281
     1
  3
Model
350
26
  3
レイアウト1
350
22
  3
レイアウト2
350
2A
  0
DICTIONARY
  5
1B
102
{ACAD_REACTORS
330
C
102
}
330
C
100
AcDbDictionary
281
     1
  0
DICTIONARY
  5
17
102
{ACAD_REACTORS
330
C
102
}
330
C
100
AcDbDictionary
281
     1
  3
Standard
350
18
  0
DICTIONARY
  5
19
102
{ACAD_REACTORS
330
C
102
}
330
C
100
AcDbDictionary
281
     1
  0
ACDBDICTIONARYWDFLT
  5
E
102
{ACAD_REACTORS
330
C
102
}
330
C
100
AcDbDictionary
281
     1
  3
Normal
350
F
100
AcDbDictionaryWithDefault
340
F
  0
DICTIONARY
  5
1D
102
{ACAD_REACTORS
330
C
102
}
330
C
100
AcDbDictionary
281
     1
  3
Standard
350
1E
  0
DICTIONARY
  5
791
102
{ACAD_REACTORS
330
C
102
}
330
C
100
AcDbDictionary
281
     1
  0
DICTIONARY
  5
5F7
102
{ACAD_REACTORS
330
C
102
}
330
C
100
AcDbDictionary
281
     1
  3
CTABLESTYLE
350
5F8
  3
DIMASSOC
350
78E
  3
HIDETEXT
350
78D
  3
PROJECTNAME
350
78F
  0
DICTIONARY
  5
AD
102
{ACAD_REACTORS
330
C
102
}
330
C
100
AcDbDictionary
281
     1
  3
AcmStdDictionary
350
B0
  0
DICTIONARY
  5
2F
102
{ACAD_REACTORS
330
C
102
}
330
C
100
AcDbDictionary
281
     1
  0
DICTIONARY
  5
221
102
{ACAD_REACTORS
330
C
102
}
330
C
100
AcDbDictionary
281
     1
  0
DICTIONARY
  5
16F
102
{ACAD_REACTORS
330
16E
102
}
330
16E
100
AcDbDictionary
281
     1
  0
DIMASSOC
  5
2AF
102
{ACAD_REACTORS
330
2AE
102
}
330
2AE
100
AcDbDimAssoc
330
2AD
 90
        3
 70
     0
 71
     0
  1
AcDbOsnapPointRef
 72
     1
331
28A
 73
     0
 91
        0
 40
0.0
 10
0.0
 20
0.0
 30
2.000000000000000E+50
 75
     0
  1
AcDbOsnapPointRef
 72
    13
331
28A
 73
     0
 91
        0
 40
0.0
 10
0.0
 20
0.0
 30
2.000000000000000E+50
 75
     0
  0
DIMASSOC
  5
2B2
102
{ACAD_REACTORS
330
2B1
102
}
330
2B1
100
AcDbDimAssoc
330
2B0
 90
        3
 70
     0
 71
     0
  1
AcDbOsnapPointRef
 72
    13
331
27E
 73
     0
 91
        0
 40
0.0
 10
0.0
 20
0.0
 30
2.000000000000000E+50
 75
     0
  1
AcDbOsnapPointRef
 72
     1
331
27B
 73
     0
 91
        0
 40
0.0
 10
0.0
 20
0.0
 30
2.000000000000000E+50
 75
     0
  0
DIMASSOC
  5
2B5
102
{ACAD_REACTORS
330
2B4
102
}
330
2B4
100
AcDbDimAssoc
330
2B3
 90
        1
 70
     0
 71
     0
  1
AcDbOsnapPointRef
 72
     1
331
236
 73
     0
 91
        0
 40
0.0
 10
0.0
 20
0.0
 30
2.000000000000000E+50
 75
     0
  0
DIMASSOC
  5
2B8
102
{ACAD_REACTORS
330
2B7
102
}
330
2B7
100
AcDbDimAssoc
330
2B6
 90
        1
 70
     0
 71
     0
  1
AcDbOsnapPointRef
 72
     1
331
246
 73
     0
 91
        0
 40
0.0
 10
0.0
 20
0.0
 30
2.000000000000000E+50
 75
     0
  0
DIMASSOC
  5
2BB
102
{ACAD_REACTORS
330
2BA
102
}
330
2BA
100
AcDbDimAssoc
330
2B9
 90
        1
 70
     0
 71
     0
  1
AcDbOsnapPointRef
 72
    13
331
289
 73
     0
 91
        0
 40
0.0
 10
0.0
 20
0.0
 30
2.000000000000000E+50
 75
     0
  0
DIMASSOC
  5
2BE
102
{ACAD_REACTORS
330
2BD
102
}
330
2BD
100
AcDbDimAssoc
330
2BC
 90
        1
 70
     0
 71
     0
  1
AcDbOsnapPointRef
 72
     1
331
233
 73
     0
 91
        0
 40
0.0
 10
0.0
 20
0.0
 30
2.000000000000000E+50
 75
     0
  0
DIMASSOC
  5
2C1
102
{ACAD_REACTORS
330
2C0
102
}
330
2C0
100
AcDbDimAssoc
330
2BF
 90
        3
 70
     0
 71
     0
  1
AcDbOsnapPointRef
 72
    13
331
244
 73
     0
 91
        0
 40
0.0
 10
0.0
 20
0.0
 30
2.000000000000000E+50
 75
     0
  1
AcDbOsnapPointRef
 72
    13
331
245
 73
     0
 91
        0
 40
0.0
 10
0.0
 20
0.0
 30
2.000000000000000E+50
 75
     0
  0
DIMASSOC
  5
2C4
102
{ACAD_REACTORS
330
2C3
102
}
330
2C3
100
AcDbDimAssoc
330
2C2
 90
        3
 70
     0
 71
     0
  1
AcDbOsnapPointRef
 72
    13
331
289
 73
     0
 91
        0
 40
0.0
 10
0.0
 20
0.0
 30
2.000000000000000E+50
 75
     0
  1
AcDbOsnapPointRef
 72
     1
331
2AB
 73
     0
 91
        0
 40
0.0
 10
0.0
 20
0.0
 30
2.000000000000000E+50
 75
     0
  0
DIMASSOC
  5
2C7
102
{ACAD_REACTORS
330
2C6
102
}
330
2C6
100
AcDbDimAssoc
330
2C5
 90
        3
 70
     0
 71
     0
  1
AcDbOsnapPointRef
 72
    13
331
22E
 73
     0
 91
        0
 40
0.0
 10
0.0
 20
0.0
 30
2.000000000000000E+50
 75
     0
  1
AcDbOsnapPointRef
 72
    13
331
22B
 73
     0
 91
        0
 40
0.0
 10
0.0
 20
0.0
 30
2.000000000000000E+50
 75
     0
  0
DIMASSOC
  5
2CC
102
{ACAD_REACTORS
330
2CB
102
}
330
2CB
100
AcDbDimAssoc
330
2CA
 90
        3
 70
     0
 71
     0
  1
AcDbOsnapPointRef
 72
    13
331
27B
 73
     0
 91
        0
 40
0.0
 10
0.0
 20
0.0
 30
2.000000000000000E+50
 75
     0
  1
AcDbOsnapPointRef
 72
     1
331
242
 73
     0
 91
        0
 40
0.0
 10
0.0
 20
0.0
 30
2.000000000000000E+50
 75
     0
  0
LAYOUT
  5
26
102
{ACAD_XDICTIONARY
360
794
102
}
102
{ACAD_REACTORS
330
1A
102
}
330
1A
100
AcDbPlotSettings
  1

  2
Fuji Xerox BT8181
  4

  6

 40
0.0
 41
0.0
 42
0.0
 43
0.0
 44
0.0
 45
0.0
 46
0.0
 47
0.0
 48
0.0
 49
0.0
140
0.0
141
0.0
142
1.0
143
1.0
 70
  1712
 72
     0
 73
     0
 74
     0
  7

 75
     0
147
1.0
148
0.0
149
0.0
100
AcDbLayout
  1
Model
 70
     1
 71
     0
 10
0.0
 20
0.0
 11
12.0
 21
9.0
 12
0.0
 22
0.0
 32
0.0
 14
0.0
 24
0.0
 34
0.0
 15
0.0
 25
0.0
 35
0.0
146
0.0
 13
0.0
 23
0.0
 33
0.0
 16
1.0
 26
0.0
 36
0.0
 17
0.0
 27
1.0
 37
0.0
 76
     0
330
23
  0
LAYOUT
  5
22
102
{ACAD_XDICTIONARY
360
792
102
}
102
{ACAD_REACTORS
330
1A
102
}
330
1A
100
AcDbPlotSettings
  1

  2
Fuji Xerox BT8181
  4

  6

 40
0.0
 41
0.0
 42
0.0
 43
0.0
 44
0.0
 45
0.0
 46
0.0
 47
0.0
 48
0.0
 49
0.0
140
0.0
141
0.0
142
1.0
143
1.0
 70
   688
 72
     0
 73
     0
 74
     5
  7

 75
    16
147
1.0
148
0.0
149
0.0
100
AcDbLayout
  1
レイアウト1
 70
     1
 71
     1
 10
0.0
 20
0.0
 11
420.0
 21
297.0
 12
0.0
 22
0.0
 32
0.0
 14
1.000000000000000E+20
 24
1.000000000000000E+20
 34
1.000000000000000E+20
 15
-1.000000000000000E+20
 25
-1.000000000000000E+20
 35
-1.000000000000000E+20
146
0.0
 13
0.0
 23
0.0
 33
0.0
 16
1.0
 26
0.0
 36
0.0
 17
0.0
 27
1.0
 37
0.0
 76
     0
330
1F
  0
LAYOUT
  5
2A
102
{ACAD_XDICTIONARY
360
796
102
}
102
{ACAD_REACTORS
330
1A
102
}
330
1A
100
AcDbPlotSettings
  1

  2
Fuji Xerox BT8181
  4

  6

 40
0.0
 41
0.0
 42
0.0
 43
0.0
 44
0.0
 45
0.0
 46
0.0
 47
0.0
 48
0.0
 49
0.0
140
0.0
141
0.0
142
1.0
143
1.0
 70
   688
 72
     0
 73
     0
 74
     5
  7

 75
    16
147
1.0
148
0.0
149
0.0
100
AcDbLayout
  1
レイアウト2
 70
     1
 71
     2
 10
0.0
 20
0.0
 11
12.0
 21
9.0
 12
0.0
 22
0.0
 32
0.0
 14
0.0
 24
0.0
 34
0.0
 15
0.0
 25
0.0
 35
0.0
146
0.0
 13
0.0
 23
0.0
 33
0.0
 16
1.0
 26
0.0
 36
0.0
 17
0.0
 27
1.0
 37
0.0
 76
     0
330
27
  0
MLINESTYLE
  5
18
102
{ACAD_REACTORS
330
17
102
}
330
17
100
AcDbMlineStyle
  2
STANDARD
 70
     0
  3

 62
   256
 51
90.0
 52
90.0
 71
     2
 49
0.5
 62
   256
  6
BYLAYER
 49
-0.5
 62
   256
  6
BYLAYER
  0
ACDBPLACEHOLDER
  5
F
102
{ACAD_REACTORS
330
E
102
}
330
E
  0
TABLESTYLE
  5
1E
102
{ACAD_REACTORS
330
1D
102
}
330
1D
100
AcDbTableStyle
  3
Standard
 70
     0
 71
     0
 40
1.5
 41
1.5
280
     0
281
     0
  7
STANDARD
140
4.5
170
     2
 62
     0
 63
     7
283
     0
274
    -2
284
     1
 64
     0
275
    -2
285
     1
 65
     0
276
    -2
286
     1
 66
     0
277
    -2
287
     1
 67
     0
278
    -2
288
     1
 68
     0
279
    -2
289
     1
 69
     0
  7
STANDARD
140
6.0
170
     5
 62
     0
 63
     7
283
     0
274
    -2
284
     1
 64
     0
275
    -2
285
     1
 65
     0
276
    -2
286
     1
 66
     0
277
    -2
287
     1
 67
     0
278
    -2
288
     1
 68
     0
279
    -2
289
     1
 69
     0
  7
STANDARD
140
4.5
170
     5
 62
     0
 63
     7
283
     0
274
    -2
284
     1
 64
     0
275
    -2
285
     1
 65
     0
276
    -2
286
     1
 66
     0
277
    -2
287
     1
 67
     0
278
    -2
288
     1
 68
     0
279
    -2
289
     1
 69
     0
  0
DICTIONARYVAR
  5
5F8
102
{ACAD_REACTORS
330
5F7
102
}
330
5F7
100
DictionaryVariables
280
     0
  1
STANDARD
  0
DICTIONARYVAR
  5
78E
102
{ACAD_REACTORS
330
5F7
102
}
330
5F7
100
DictionaryVariables
280
     0
  1
2
  0
DICTIONARYVAR
  5
78D
102
{ACAD_REACTORS
330
5F7
102
}
330
5F7
100
DictionaryVariables
280
     0
  1
1
  0
DICTIONARYVAR
  5
78F
102
{ACAD_REACTORS
330
5F7
102
}
330
5F7
100
DictionaryVariables
280
     0
  1

  0
DICTIONARY
  5
B0
102
{ACAD_REACTORS
330
AD
102
}
330
AD
100
AcDbDictionary
281
     1
  0
DICTIONARY
  5
794
330
26
100
AcDbDictionary
280
     1
281
     1
  3
ACAD_XREC_ROUNDTRIP
360
795
  0
DICTIONARY
  5
792
330
22
100
AcDbDictionary
280
     1
281
     1
  3
ACAD_XREC_ROUNDTRIP
360
793
  0
DICTIONARY
  5
796
330
2A
100
AcDbDictionary
280
     1
281
     1
  3
ACAD_XREC_ROUNDTRIP
360
797
  0
XRECORD
  5
795
102
{ACAD_REACTORS
330
794
102
}
330
794
100
AcDbXrecord
280
     1
102
SHADEPLOT
 70
     0
102
SHADEPLOTRESLEVEL
 70
     2
102
SHADEPLOTCUSTOMDPI
 70
   300
  0
XRECORD
  5
793
102
{ACAD_REACTORS
330
792
102
}
330
792
100
AcDbXrecord
280
     1
102
SHADEPLOT
 70
     0
102
SHADEPLOTRESLEVEL
 70
     2
102
SHADEPLOTCUSTOMDPI
 70
   300
  0
XRECORD
  5
797
102
{ACAD_REACTORS
330
796
102
}
330
796
100
AcDbXrecord
280
     1
102
SHADEPLOT
 70
     0
102
SHADEPLOTRESLEVEL
 70
     2
102
SHADEPLOTCUSTOMDPI
 70
   300
  0
ENDSEC
  0
EOF
